<?xml version="1.0" standalone="no"?>
<!DOCTYPE svg PUBLIC "-//W3C//DTD SVG 1.1//EN" "http://www.w3.org/Graphics/SVG/1.1/DTD/svg11.dtd">
<svg xmlns="http://www.w3.org/2000/svg">
<metadata>Generated by Fontastic.me</metadata>
<defs>
<font id="untitled-font-1" horiz-adv-x="512">
<font-face font-family="untitled-font-1" units-per-em="512" ascent="480" descent="-32"/>
<missing-glyph horiz-adv-x="512" />

<glyph glyph-name="24x7-icon" unicode="&#97;" d="M160 202l-54 0c3 10 12 15 25 22 17 9 37 19 37 49 0 25-18 44-40 44-22 0-40-19-40-44 0-4 4-8 9-8 4 0 8 4 8 8 0 15 10 28 23 28 13 0 24-13 24-28 0-19-11-25-28-34-16-8-36-18-36-45 0-5 4-8 9-8l63 0c4 0 8 3 8 8 0 5-4 8-8 8z m305-106l-13-5c39 46 60 104 60 165 0 68-27 133-75 181-48 48-113 75-181 75-53 0-103-16-146-46-4-2-5-8-2-11 3-4 8-5 11-2 41 28 88 42 137 42 64 0 124-24 169-70 46-45 70-105 70-169 0-59-21-115-60-159l3 21c1 4-2 8-7 9-4 1-8-2-9-7l-8-48c0-3 1-6 3-8 2-1 3-2 5-2 1 0 2 0 3 1l46 18c4 1 6 6 5 10-2 5-7 7-11 5z m-127 247c-4 2-9 0-10-5l-53-159c-2-4 1-9 5-10 1-1 2-1 3-1 3 0 6 2 7 6l53 159c2 4 0 9-5 10z m93-29c-1 2-4 3-7 3l-62 0c-4 0-8-3-8-8 0-5 4-8 8-8l49 0-48-103c-1-5 0-10 5-11 1-1 2-1 3-1 3 0 6 2 8 5l53 115c1 2 1 5-1 8z m-175-85l-9 0 0 80c0 5-4 8-9 8-4 0-8-3-8-8l0-80-35 0 16 78c1 5-2 9-6 10-5 1-9-2-10-6l-18-89c0-2 0-5 2-7 1-2 4-3 6-3l45 0 0-18c0-5 4-8 8-8 5 0 9 3 9 8l0 18 9 0c5 0 8 4 8 9 0 4-3 8-8 8z m148-172c-2 4-8 5-11 2-41-28-88-42-137-42-64 0-124 24-169 70-46 45-70 105-70 169 0 59 21 115 60 159l-4-22c0-5 3-9 7-10 1 0 1 0 2 0 4 0 7 3 8 7l8 50c0 3-1 6-3 8-2 2-6 2-8 1l-47-18c-5-2-7-7-5-11 2-4 6-6 11-5l14 6c-39-46-60-104-60-165 0-68 27-133 75-181 48-48 113-75 181-75 53 0 103 16 146 46 4 2 5 7 2 11z"/>
<glyph glyph-name="browse-by-industry" unicode="&#98;" d="M502 17l-24 0 0 102c5 5 8 11 8 18 0 13-10 23-23 23l-49 0-7 120c-1 4-4 7-8 7l-32 0c-4 0-7-3-7-7l-8-120-17 0-8 120c0 4-3 7-7 7l-32 0c-4 0-7-3-8-7l-7-120-18 0-7 120c-1 4-4 7-8 7l-32 0c-4 0-7-3-7-7l-8-120-20 0-5 207c0 4-3 8-7 8l-48 0c-4 0-7-4-8-8l-5-239-59 0c-12 0-23-10-23-23 0-7 3-13 8-18l0-70-16 0c-5 0-8-3-8-7 0-5 3-8 8-8l492 0c5 0 8 3 8 8 0 4-3 7-8 7z m-403 79l-26 0c-4 0-7-3-7-7 0-4 3-7 7-7l26 0-1-65-57 0 0 65c0 0 0 0 0 0 4 0 8 3 8 7 0 4-4 7-8 7-4 0-8 4-8 9 0 5 4 8 8 8l59 0z m275 176l18 0 7-112-32 0z m-79 0l18 0 7-112-32 0z m-80 0l18 0 7-112-32 0z m-86-255l-16 0 7 343 33 0 5-200-13 0c-13 0-24-10-24-23 0-7 3-13 8-18l0-102z m334 111l-16 0c-4 0-8-3-8-7 0-4 4-8 8-8l16 0c0 0 0 0 0 0l0-96-319 0 0 96c0 0 1 0 1 0l270 0c4 0 7 4 7 8 0 4-3 7-7 7l-270 0c-5 0-9 4-9 9 0 4 4 8 9 8l318 0c4 0 8-4 8-8 0-5-4-9-8-9z m-48 382c-22 0-44-8-61-22-12 9-27 14-42 14-19 0-37-7-50-20-7 2-14 4-22 4-22 0-42-13-50-33-3 1-6 1-10 1-15 0-28-10-33-24-1 0-1 0-2 0-13 0-24-10-24-23 0-4 4-7 8-7 4 0 7 3 7 7 0 5 4 8 9 8 1 0 3 0 4-1 2-1 5-1 7 0 3 1 4 4 4 6 1 11 10 19 20 19 4 0 7-1 10-2 2-1 5-2 7-1 2 1 4 3 4 5 5 18 21 30 39 30 7 0 14-2 20-5 3-2 7-1 9 2 11 12 26 19 43 19 14 0 27-5 37-15 3-2 8-2 11 1 15 14 34 22 55 22 44 0 80-36 80-80 0-44-36-80-80-80-29 0-56 16-70 42-2 3-6 5-10 3-7-4-15-5-23-5-17 0-32 7-43 19-2 3-6 4-9 2-6-4-13-5-20-5-12 0-24 5-32 15-1 2-3 3-6 3 0 0 0 0 0 0-2 0-4-1-6-3-3-5-9-7-16-7-4 0-7-4-7-8 0-4 3-7 7-7 8 0 16 2 22 7 10-10 24-15 38-15 8 0 15 1 22 4 13-13 31-20 50-20 8 0 16 1 23 4 17-27 47-44 80-44 52 0 95 43 95 95 0 52-43 95-95 95z m-223-414c-4 0-7-3-7-7l0-16c0-4 3-7 7-7 5 0 8 3 8 7l0 16c0 4-3 7-8 7z m32 0c-4 0-7-3-7-7l0-16c0-4 3-7 7-7 4 0 8 3 8 7l0 16c0 4-4 7-8 7z m32 0c-4 0-7-3-7-7l0-16c0-4 3-7 7-7 4 0 7 3 7 7l0 16c0 4-3 7-7 7z m32 0c-4 0-8-3-8-7l0-16c0-4 4-7 8-7 4 0 7 3 7 7l0 16c0 4-3 7-7 7z m32 0c-5 0-8-3-8-7l0-16c0-4 3-7 8-7 4 0 7 3 7 7l0 16c0 4-3 7-7 7z m31 0c-4 0-7-3-7-7l0-16c0-4 3-7 7-7 4 0 8 3 8 7l0 16c0 4-4 7-8 7z m32 0c-4 0-7-3-7-7l0-16c0-4 3-7 7-7 4 0 8 3 8 7l0 16c0 4-4 7-8 7z m32 0c-4 0-7-3-7-7l0-16c0-4 3-7 7-7 4 0 7 3 7 7l0 16c0 4-3 7-7 7z"/>
<glyph glyph-name="buy-directory" unicode="&#99;" d="M495 373l0 37c0 2-1 3-2 4-1 1-3 2-4 1l-26-3 0 19c0 2-1 3-2 4-1 2-3 2-5 1l-200-52-200 52c-2 1-4 1-5 0-1-2-2-3-2-5l0-19-26 3c-1 1-3 0-4-1-1-1-2-2-2-4l0-37c-9-1-17-8-17-18l0-262c0-10 8-18 18-18l238 0c0 0 0 0 0 0 0 0 0 0 0 0 0 0 0 0 0 0 0 0 0 0 0 0l238 0c10 0 18 8 18 18l0 262c0 10-8 17-17 18z m-11 31l0-287-142-19 117 31c3 0 4 2 4 5l0 267z m-32-266l-191-50 0 286 191 50z m-392 286l169-44 0-245c0-3 3-5 6-5 3 0 5 2 5 5l0 242 11-3 0-286-11 2 0 13c0 3-2 6-5 6-3 0-6-3-6-6l0-10-169 45z m-32-20l21-3 0-267c0-3 1-5 4-5l117-31-142 19z m-17-311l0 262c0 4 2 7 6 7l0-249c0-3 2-5 5-6l155-21-159 0c-4 0-7 3-7 7z m490 0c0-4-3-7-7-7l-159 0 155 21c3 1 5 3 5 6l0 249c4 0 6-3 6-7l0-262z m-422 292c1 3 4 4 7 4l131-37c2-1 4-4 3-6 0-3-3-4-5-4 0 0-1 0-1 0l-131 36c-3 1-5 4-4 7z m141-76c0-2-3-4-5-4 0 0-1 0-1 0l-131 37c-3 1-5 4-4 6 1 3 4 5 7 4l131-36c2-1 4-4 3-7z m0-36c0-3-3-4-5-4 0 0-1 0-1 0l-131 36c-3 1-5 4-4 7 1 3 4 5 7 4l131-37c2 0 4-3 3-6z m0-37c0-2-3-4-5-4 0 0-1 1-1 1l-131 36c-3 1-5 4-4 7 1 2 4 4 7 3l131-36c2-1 4-4 3-7z m0-36c0-2-3-4-5-4 0 0-1 0-1 0l-131 37c-3 0-5 3-4 6 1 3 4 5 7 4l131-37c2 0 4-3 3-6z m0-37c0-2-3-3-5-3 0 0-1 0-1 0l-131 36c-3 1-5 4-4 7 1 3 4 4 7 3l131-36c2-1 4-4 3-7z m66 183c0 2 1 5 4 6l131 37c3 0 6-1 6-4 1-3 0-6-3-7l-131-36c-1 0-1 0-2 0-2 0-4 1-5 4z m0-37c0 3 1 6 4 7l131 36c3 1 6-1 6-4 1-2 0-5-3-6l-131-37c-1 0-1 0-2 0-2 0-4 2-5 4z m0-36c0 3 1 6 4 6l131 37c3 1 6-1 6-4 1-3 0-6-3-7l-131-36c-1 0-1 0-2 0-2 0-4 1-5 4z m0-37c0 3 1 6 4 7l131 36c3 1 6-1 6-3 1-3 0-6-3-7l-131-36c-1 0-1-1-2-1-2 0-4 2-5 4z m0-36c0 3 1 6 4 6l131 37c3 1 6-1 6-4 1-3 0-6-3-6l-131-37c-1 0-1 0-2 0-2 0-4 2-5 4z m0-37c0 3 1 6 4 7l131 36c3 1 6 0 6-3 1-3 0-6-3-7l-131-36c-1 0-1 0-2 0-2 0-4 1-5 3z"/>
<glyph glyph-name="buy-leads" unicode="&#100;" d="M256 512c-19 0-34-15-34-34 0-19 15-34 34-34 19 0 34 15 34 34 0 19-15 34-34 34z m0-51c-9 0-17 7-17 17 0 9 8 17 17 17 9 0 17-8 17-17 0-10-8-17-17-17z m171-43c-19 0-34-15-34-34 0-19 15-34 34-34 19 0 34 15 34 34 0 19-15 34-34 34z m0-51c-10 0-17 8-17 17 0 9 7 17 17 17 9 0 17-8 17-17 0-9-8-17-17-17z m-342 51c-19 0-34-15-34-34 0-19 15-34 34-34 19 0 34 15 34 34 0 19-15 34-34 34z m0-51c-9 0-17 8-17 17 0 9 8 17 17 17 10 0 17-8 17-17 0-9-7-17-17-17z m393-256l0 128 25 0 0 57c0 25-20 45-45 45l-63 0c-25 0-45-20-45-45l0-57 25 0 0-128-34 0 0 94-34 0 0 128 26 0 0 57c0 25-20 45-45 45l-64 0c-25 0-45-20-45-45l0-57 26 0 0-128-34 0 0-94-34 0 0 128 25 0 0 57c0 25-20 45-45 45l-63 0c-25 0-45-20-45-45l0-57 25 0 0-128-34 0 0-111 512 0 0 111z m-452 145l0 40c0 16 12 28 28 28l63 0c16 0 28-12 28-28l0-40-8 0 0 34-18 0 0-171-25 0 0 77-17 0 0-77-26 0 0 171-17 0 0-34z m145-239l-154 0 0 77 154 0z m196 239l0 40c0 16 12 28 28 28l63 0c16 0 28-12 28-28l0-40-8 0 0 34-17 0 0-171-26 0 0 77-17 0 0-77-25 0 0 171-18 0 0-34z m-171 94l0 40c0 16 13 28 28 28l64 0c15 0 28-12 28-28l0-40-9 0 0 34-17 0 0-171-25 0 0 77-18 0 0-77-25 0 0 171-17 0 0-34z m128-333l-136 0 0 171 136 0z m171 0l-154 0 0 77 154 0z"/>
<glyph glyph-name="buy-offer" unicode="&#101;" d="M395 16l-278 0c-19 0-35 13-39 32l-43 184-11 0c-13 0-24 11-24 24l0 47c0 13 11 23 24 23l49 0 161 161c12 12 32 12 44 0l161-161 49 0c13 0 24-10 24-23l0-47c0-13-11-24-24-24l-11 0-43-185c-4-18-20-31-39-31z m-371 294c-4 0-7-4-7-7l0-47c0-4 3-7 7-7l18 0c4 0 8-3 8-6l45-192c2-11 11-18 22-18l278 0c11 0 20 7 22 18l45 192c0 3 4 6 8 6l18 0c4 0 7 3 7 7l0 47c0 3-3 7-7 7l-52 0c-3 0-5 1-7 2l0 1-163 162c-5 6-15 6-20 0l-163-162c-2-2-4-3-7-3z m324-214l-186 0c-5 0-8 4-8 9 0 4 3 8 8 8l186 0c5 0 9-4 9-8 0-5-4-9-9-9z m26 60l-237 0c-5 0-9 3-9 8 0 5 4 8 9 8l237 0c4 0 8-3 8-8 0-5-4-8-8-8z m8 59l-271 0c-4 0-8 4-8 8 0 5 4 9 8 9l271 0c5 0 8-4 8-9 0-4-3-8-8-8z m-12 95l-228 0c-4 0-7 2-8 5-1 3-1 7 2 9l114 114c3 3 9 3 12 0l114-114c3-2 3-6 2-9-1-3-4-5-8-5z m-208 16l188 0-94 94z"/>
<glyph glyph-name="buy-product" unicode="&#102;" d="M471 142c-2 5-8 8-14 6l-106-39c-5-2-8-8-6-13 2-4 6-7 10-7 1 0 2 0 3 1l107 39c5 2 8 8 6 13z m-136-50c-2 6-7 8-13 6l-4-1c-6-2-8-8-6-13 1-5 5-7 9-7 1 0 3 0 4 1l4 1c6 2 8 8 6 13z m136 92c-2 5-8 8-14 6l-83-31c-6-2-8-8-6-13 1-4 5-7 9-7 1 0 3 0 4 1l84 31c5 2 8 7 6 13z m0 41c-2 5-8 8-14 6l-83-31c-6-2-8-8-6-13 1-4 5-7 9-7 1 0 3 0 4 1l84 31c5 2 8 8 6 13z m34 186l-245 91c-3 1-5 1-8 0l-245-91 0 0c-1 0-2 0-3-1-2-2-4-5-4-8l0-292c0-4 3-8 7-9l245-91c2-1 3-1 4-1 1 0 2 0 4 1l0 0 245 91c4 1 7 5 7 9l0 292c0 4-3 8-7 9z m-259-377l-226 83 0 270 46-17 0-123c0-5 3-8 7-10l110-40c1-1 2-1 4-1 2 0 4 1 5 2 3 2 5 5 5 8l0 116 49-18 0-270z m-70 296l0-109-89 33 0 109z m-70 48l81 29 80-29-80-30z m150-56l-40 15 84 31c4 1 7 5 7 10 0 4-3 8-7 9l-110 41c-2 1-5 1-7 0l-107-40-36 14 216 80 216-80z m236-205l-226-83 0 270 226 83z"/>
<glyph glyph-name="buyers" unicode="&#103;" d="M244 43c0 24-19 43-43 43-24 0-43-19-43-43 0-24 19-43 43-43 24 0 43 19 43 43z m-71 0c0 15 13 27 28 27 15 0 27-12 27-27 0-15-12-27-27-27-15 0-28 12-28 27z m199 0c0 24-20 43-43 43-24 0-43-19-43-43 0-24 19-43 43-43 23 0 43 19 43 43 0 0 0 0 0 0l0 0z m-71 0c0 15 13 27 28 27 15 0 27-12 27-27 0-15-12-27-27-27-15 0-28 12-28 27z m-238 405l23-9 0-271c0-39 32-71 71-71l254 0c18 0 33 15 33 34 0 18-15 33-33 33l-254 0c-3 0-5 2-5 4l0 23 247 0c39 0 70 31 70 70l0 76c0 18-15 33-33 33-18 0-33-15-33-33l0-76c0-2-2-4-4-4l-242 0c-3 0-5 2-5 4l0 191c0 19-11 35-28 42l-35 15c-17 7-37 0-44-17-3-8-3-18 0-26 3-8 10-14 18-18z m-3 38c3 9 14 13 23 9 0 0 0 0 0 0l35-15c11-5 19-16 19-28l0-191c0-11 9-20 20-20l242 0c11 0 20 9 20 20l0 76c0 9 7 17 17 17 10 0 18-8 18-17l0-76c0-30-25-55-55-55l-242 0c-4 0-8 1-11 1-4 1-8-2-9-6 0 0 0-1 0-1l0-32c0-11 9-20 20-20l254 0c10 0 17-8 17-18 0-9-7-17-17-17l-254 0c-31 0-56 25-56 55l0 276c0 3-2 6-4 7l-28 12c-9 4-13 14-9 23z m144-214l147 0c10 0 19 9 19 20l0 28c0 33-17 64-46 80 26 26 26 68 0 93-26 26-68 25-93-1-25-25-25-66 0-92-29-16-46-47-46-80l0-28c0-11 9-20 19-20z m-4 49c0 31 19 59 48 70 4 2 6 7 4 10-1 2-2 3-3 4-23 16-29 47-13 70 16 23 47 28 70 13 23-16 29-47 13-70-4-5-8-10-13-13-4-3-4-7-2-11 1-1 2-2 3-3 29-11 48-39 48-70l0-29c0-3-2-4-4-4l-147 0c-2 0-4 1-4 4z"/>
<glyph glyph-name="confirm-deal" unicode="&#104;" d="M468 315c-17 17-39 30-62 37 0 40-16 76-44 104-28 28-66 44-106 44-40 0-78-16-106-44-28-28-43-65-44-104-23-7-45-20-62-37-28-28-44-66-44-106 0-41 16-78 44-107 28-28 66-44 106-44 5 0 9 4 9 9 0 5-4 9-9 9-73 0-132 59-132 133 0 73 59 132 132 132 73 0 132-59 132-132 0-5 4-9 9-9 5 0 9 4 9 9 0 82-67 150-150 150-2 0-3 0-5-1 8 59 58 104 118 104 3 0 4 2 4 4 0 3-1 5-4 5-65 0-119-49-127-113-4 0-8-1-12-2 3 70 61 126 132 126 71 0 129-56 132-126-8 2-17 3-26 3-5 0-9-4-9-9 0-5 4-9 9-9 73 0 132-59 132-132 0-74-59-133-132-133-5 0-9-4-9-9 0-5 4-9 9-9 40 0 78 16 106 44 28 28 44 66 44 107 0 40-16 78-44 106z m-311 14c-70 0-128-57-128-127 0-3 2-5 5-5 2 0 4 2 4 5 0 65 54 119 119 119 3 0 5 2 5 4 0 3-2 4-5 4z m157-213l-83-82-33 32c-3 4-9 4-12 0-3-3-3-9 0-12l39-39c1 0 1 0 1-1 0 0 1 0 1 0 0 0 0-1 1-1 0 0 0 0 0 0 1 0 1 0 2 0 0 0 0-1 0-1 1 0 1 0 2 0 0 0 1 0 1 0 1 0 1 1 1 1 0 0 1 0 1 0 0 0 1 0 1 0 0 0 0 1 1 1 0 0 0 0 0 0 0 0 1 1 1 1l88 88c4 4 4 9 0 13-3 3-9 3-12 0z"/>
<glyph glyph-name="connect-sellers" unicode="&#105;" d="M406 112c9 0 17 0 26 0 0-16 0-31 0-47-9 0-17 0-26 0 0 15 0 31 0 47z m2 229c-8 85-96 151-204 151-113 0-204-73-204-164 1-48 26-94 67-121l0-101c0-7 5-12 12-12 4 0 7 1 9 3l77 70c6-1 12-1 18-2 25-52 88-87 159-87 10 0 21 1 32 2l62-57c5-5 13-4 18 1 2 2 4 5 4 8l0 82c33 23 53 61 54 101 0 55-41 105-104 126z m-206-151c-13 0-26 1-39 4-4 0-8-1-11-4l-60-55 0 79c0 4-2 8-6 10-36 23-59 62-60 104 0 76 80 138 179 138 98 0 179-62 179-138-1-8-2-16-3-24-8-27-24-51-45-69-38-30-86-46-134-45z m235-58c-3-3-5-7-5-11l0-59-46 42c-2 2-5 3-8 3l-3 0c-11-2-22-3-34-3-50-2-98 20-128 60 52 2 101 20 142 53 25 22 43 51 51 84 0 3 2 7 2 10l0 2c48-19 78-57 78-98-1-34-19-65-49-83z m-375 268c2 6 7 9 13 9 5-1 10 0 14 0 9 0 13-4 13-12 0-1 0-1 0-2 2 0 4 0 6 0 8 0 11-2 14-10 5 0 10 0 15 0 0 5 0 9 1 14 1 2 2 4 3 6 2 4 3 4 7 3 10-4 20-6 30-7 6-1 11-1 17 0 10 1 20-1 29-4 12-4 22-8 33-13 2 0 4-1 5-1 6 0 12 0 19 0 1 0 2 0 3 0 0 1 0 2 0 3 1 5 5 9 11 9 2 0 5 0 8 0 0 1 0 2 0 3 1 6 5 10 11 11 6 0 13 0 19 0 6-1 9-4 11-9 0-44 0-88 0-132-3-7-7-10-14-9-5 0-10 0-15 0-7 0-11 3-12 10 0 1 0 1 0 2-2 0-4 0-7 0-7 0-11 3-12 10 0 0 0 1 0 1-3-1-6-1-8-2 0-4-2-8-5-12-3-3-7-5-12-5 0-5-1-9-5-12-3-4-7-5-12-5 0-1 0-2 0-2-1-6-4-11-10-13-6-3-11-2-16 2-4 3-8 7-12 10-1 1-2 2-3 3-2-2-3-4-5-5-7-8-23-5-26 7-1 0-1 1-1 2-5-2-10-1-15 2-4 3-6 7-7 13-11 0-17 6-17 17-3 1-6 1-8 2 0-1 0-1 0-2-1-7-5-11-12-11-1 0-1 0-2 0-2 0-4 0-5-1-1 0-1-3-2-4-1-4-5-7-9-7-7 0-13 0-20 0-6 0-9 4-10 9 0 5 0 10 0 15 1 2 3 4 5 3 3-1 3-3 3-6 0-3 0-6 0-9 0-3 1-4 4-4 5 0 10 0 15 0 4 0 5 1 5 5 0 14 0 28 0 42 0 27 0 55 0 82 0 4-1 4-5 4-4 0-9 0-14 0-5 0-5 0-5-5 0-32 0-65 0-97 0-3 0-5-3-6-3 0-4 1-5 3 0 35 0 70 0 105z m146-149c4-4 8-7 12-11 4-3 8-3 11-1 3 3 3 7 1 11-2 2-2 4 0 6 2 2 4 1 6 0 0 0 0 0 1-1 3-1 7-1 9 1 3 3 3 7 2 10-1 1-2 1-2 2 0 2 0 4 1 5 1 1 3 1 4 1 1 0 2-1 3-2 3-1 7-1 9 2 2 2 3 6 1 9 0 1-1 2-1 2 0 2 0 4 1 5 1 1 3 1 4 1 1 0 1-1 2-1 3-2 6-2 8 0 3 2 4 5 3 8 0 2-2 4-3 5-9 8-18 16-27 24-3 2-5 3-9 3-3 0-7 0-10 0-15 2-29 8-40 19-2 3-4 7-7 8-3 2-8 2-11 3-10 2-20 4-28 11-5 4-10 6-16 5-1 0-3 0-5 0-1 0-3 0-5 0 0-21 0-42 0-63 1 1 2 2 2 3 8 7 16 14 24 21 9 9 23 5 27-7 0-2 0-4 1-6 9-1 15-6 16-16 11-1 14-3 18-14 3-1 6-1 8-2 11-4 14-18 5-27-5-5-10-9-15-14z m-61 148c-4-8-2-15 5-20 2-2 4-3 6-4 9-5 20-8 31-9 3-1 5-2 7-5 5-8 12-14 21-17 10-5 20-6 31-6 2 0 4-1 6-2 9-7 18-15 28-23 0-1 1-1 2-2 0 22 0 43 0 64-2 0-3 0-4 0-6 0-12 0-19 0-2 0-4 1-7 2-12 6-25 11-39 14-6 1-12 2-17 2-10-1-19-1-29 1-7 1-14 3-22 5z m156-120c0 2 0 3 0 4 0 26 0 51 0 77 0 1 0 2 0 3 1 2 2 3 4 3 2 0 4-1 4-3 0-1 0-2 0-3 0-30 0-59 0-88 0-4 1-5 5-5 5 0 10 0 15 0 4 0 4 1 4 4 0 42 0 84 0 125 0 4 0 4-4 4-5 0-10 0-15 0-4 0-5 0-5-4 0-5 0-11 0-16 0-2 0-3 0-5 0-2-2-3-4-3-2 0-3 1-4 3 0 2 0 3 0 4 0 3 0 5 0 8-2 0-4 0-6 0-4 0-5-1-5-5 0-22 0-44 0-66 0-11 0-22 0-32 0-5 1-5 5-5 2 0 4 0 6 0z m-201 108c0-36 0-72 0-108 2 0 4 0 6 0 5 0 5 0 5 5 0 30 0 59 0 89 0 3 0 6 0 10 0 2-1 4-3 4-3 0-5 0-8 0z m29-96c1 0 3 1 4 2 10 9 19 18 29 26 1 1 1 1 2 2 1 3 2 5 0 8-1 3-3 5-6 4-3 0-5-1-7-3-9-8-19-16-28-25 0 0-1-1-2-2-2-2-2-5-1-8 2-3 4-4 9-4z m53 17c-1 3-2 6-5 7-3 2-6 1-9-1-5-5-10-10-15-14-5-5-10-9-14-13-4-3-4-8-1-11 3-4 8-4 11-1 10 9 20 19 30 28 2 1 2 3 3 5z m-28-42c0-4 1-7 4-8 4-2 7-1 9 2 10 9 20 18 30 27 3 2 3 7 0 10-3 4-8 4-11 1-10-9-20-18-30-28-1-1-2-3-2-4z m29-22c2 1 4 1 5 3 6 4 11 9 17 14 3 4 7 7 10 10 4 4 4 9 1 12-3 3-8 3-11 0-9-9-18-17-27-25-3-2-3-5-2-8 1-3 4-5 7-6z"/>
<glyph glyph-name="contact-us" unicode="&#106;" d="M277 409c-35 0-64-28-64-64 0-17 7-33 19-45 12-12 28-19 45-19 35 0 64 29 64 64 0 36-29 64-64 64z m35-98c-19-19-50-19-69 0-9 9-15 22-15 34 0 13 5 26 15 35 19 19 49 19 69 0 19-19 19-50 0-69z m1-49l-72 0c-47 0-85-38-85-85l0-49c0-4 3-8 7-8l228 0c4 0 8 4 8 8l0 49c0 47-39 85-86 85z m70-126l-212 0 0 41c0 38 31 70 70 70l72 0c39 0 70-32 70-70z m94 364c-6 6-15 10-24 10l-352 0c-19 0-34-15-34-34l0-43-13 0c-16 0-29-13-29-29l0-2c0-16 13-30 29-30l13 0 0-86-13 0c-16 0-29-13-29-29l0-2c0-16 13-29 29-29l13 0 0-87-13 0c-16 0-29-13-29-29l0-2c0-16 13-29 29-29l13 0 0-43c0-9 3-18 10-24 6-6 15-10 24-10l352 0c19 0 34 15 34 34l0 440c0 9-3 18-10 24z m-423-112c-8 0-13 6-13 14l0 2c0 7 5 13 13 13 0 0 0 0 0 0l40 0c8 0 13-6 13-13l0-2c0-8-5-13-13-13z m0-146c-8 0-13 5-13 13l0 2c0 7 5 13 13 13 0 0 0 0 0 0l40 0c8 0 13-6 13-13l0-2c0-7-5-13-13-13z m0-147c-8 0-13 6-13 13l0 2c0 7 5 13 13 13 0 0 0 0 0 0l40 0c8 0 13-6 13-13l0-2c0-7-5-13-13-13z m418-59c0-10-8-18-19-18l-352 0c-5 0-10 1-13 5-4 3-6 8-6 13l0 43 13 0c16 0 29 13 29 29l0 2c0 16-13 29-29 29l-13 0 0 87 12 0c17 0 30 13 30 29l0 2c0 16-13 29-30 29l-12 0 0 86 12 0c17 0 30 14 30 30l0 2c0 16-13 29-30 29l-12 0 0 43c0 10 9 18 19 18l352 0c11 0 19-8 19-18z"/>
<glyph glyph-name="explore-by-cities" unicode="&#107;" d="M478 19l-14 0 0 448c0 5-4 9-8 9l-160 0c-5 0-9-4-9-9l0-37-17 0 0 37c0 5-4 9-8 9l-37 0 0 25c0 5-4 9-9 9-5 0-8-4-8-9l0-25-38 0c-4 0-8-4-8-9l0-37-26 0c-5 0-8-4-8-9l0-71-72 0c-4 0-8-4-8-8l0-323-14 0c-5 0-9-4-9-8 0-5 4-9 9-9l444 0c5 0 9 4 9 9 0 4-4 8-9 8z m-299 440l74 0 0-29-74 0z m-29-440l-5 0 0 15c0 4-4 8-9 8-5 0-8-4-8-8l0-15-6 0 0 29 28 0z m58 220l0-220-40 0 0 37c0 5-4 9-9 9l-46 0c-4 0-8-4-8-9l0-37-40 0 0 314 143 0z m8 111l-71 0 0 63 142 0 0-166-62 0 0 29 25 0c5 0 9 4 9 9 0 4-4 8-9 8l-25 0 0 29 25 0c5 0 9 3 9 8 0 5-4 9-9 9l-25 0 0 3c0 4-4 8-9 8z m151-331l-142 0 0 211 142 0z m80 0l-63 0 0 231c0 5-3 9-8 9-5 0-9-4-9-9l0-3-17 0 0 3c0 5-4 9-8 9-5 0-9-4-9-9l0-3-29 0 0 212 143 0z m-185 17c4 0 8 4 8 9l0 160c0 4-4 8-8 8-5 0-9-4-9-8l0-160c0-5 4-9 9-9z m34 0c5 0 8 4 8 9l0 160c0 4-3 8-8 8-5 0-9-4-9-8l0-160c0-5 4-9 9-9z m34 0c5 0 9 4 9 9l0 160c0 4-4 8-9 8-5 0-8-4-8-8l0-160c0-5 3-9 8-9z m12 365c4 0 8 4 8 9l0 11c0 5-4 9-8 9-5 0-9-4-9-9l0-11c0-5 4-9 9-9z m34 0c5 0 8 4 8 9l0 11c0 5-3 9-8 9-5 0-9-4-9-9l0-11c0-5 4-9 9-9z m34 0c5 0 9 4 9 9l0 11c0 5-4 9-9 9-5 0-9-4-9-9l0-11c0-5 4-9 9-9z m-68-57c4 0 8 4 8 9l0 11c0 5-4 9-8 9-5 0-9-4-9-9l0-11c0-5 4-9 9-9z m34 0c5 0 8 4 8 9l0 11c0 5-3 9-8 9-5 0-9-4-9-9l0-11c0-5 4-9 9-9z m34 0c5 0 9 4 9 9l0 11c0 5-4 9-9 9-5 0-9-4-9-9l0-11c0-5 4-9 9-9z m-68-57c4 0 8 4 8 9l0 11c0 5-4 9-8 9-5 0-9-4-9-9l0-11c0-5 4-9 9-9z m34 0c5 0 8 4 8 9l0 11c0 5-3 9-8 9-5 0-9-4-9-9l0-11c0-5 4-9 9-9z m34 0c5 0 9 4 9 9l0 11c0 5-4 9-9 9-5 0-9-4-9-9l0-11c0-5 4-9 9-9z m-308-22c5 0 9 3 9 8l0 12c0 4-4 8-9 8-5 0-9-4-9-8l0-12c0-5 4-8 9-8z m34 0c5 0 9 3 9 8l0 12c0 4-4 8-9 8-5 0-8-4-8-8l0-12c0-5 3-8 8-8z m34 0c5 0 9 3 9 8l0 12c0 4-4 8-9 8-4 0-8-4-8-8l0-12c0-5 4-8 8-8z m-68-57c5 0 9 3 9 8l0 11c0 5-4 9-9 9-5 0-9-4-9-9l0-11c0-5 4-8 9-8z m34 0c5 0 9 3 9 8l0 11c0 5-4 9-9 9-5 0-8-4-8-9l0-11c0-5 3-8 8-8z m34 0c5 0 9 3 9 8l0 11c0 5-4 9-9 9-4 0-8-4-8-9l0-11c0-5 4-8 8-8z m-68-58c5 0 9 4 9 9l0 11c0 5-4 9-9 9-5 0-9-4-9-9l0-11c0-5 4-9 9-9z m34 0c5 0 9 4 9 9l0 11c0 5-4 9-9 9-5 0-8-4-8-9l0-11c0-5 3-9 8-9z m34 0c5 0 9 4 9 9l0 11c0 5-4 9-9 9-4 0-8-4-8-9l0-11c0-5 4-9 8-9z m-68-57c5 0 9 4 9 9l0 11c0 5-4 9-9 9-5 0-9-4-9-9l0-11c0-5 4-9 9-9z m34 0c5 0 9 4 9 9l0 11c0 5-4 9-9 9-5 0-8-4-8-9l0-11c0-5 3-9 8-9z m34 0c5 0 9 4 9 9l0 11c0 5-4 9-9 9-4 0-8-4-8-9l0-11c0-5 4-9 8-9z m240 137c5 0 9 4 9 9l0 11c0 5-4 9-9 9-5 0-9-4-9-9l0-11c0-5 4-9 9-9z m0-57c5 0 9 4 9 9l0 11c0 5-4 9-9 9-5 0-9-4-9-9l0-11c0-5 4-9 9-9z m0-57c5 0 9 4 9 9l0 11c0 5-4 9-9 9-5 0-9-4-9-9l0-11c0-5 4-9 9-9z m0-57c5 0 9 4 9 9l0 11c0 5-4 9-9 9-5 0-9-4-9-9l0-11c0-5 4-9 9-9z m-151 317c0 5-4 8-9 8l-68 0c-5 0-9-3-9-8 0-5 4-9 9-9l68 0c5 0 9 4 9 9z"/>
<glyph glyph-name="global-industry" unicode="&#108;" d="M175 162c-3 2-6 5-9 8-5 6-12 14-18 22-20 24-40 49-57 49-2 0-4 0-6-1-6-2-11-6-13-12-1-2-1-5-2-7-8 16-12 25-12 44l0 50c0 52-33 56-42 56-3 0-4 0-4 0-3-1-5-2-5-5l0-143c0-18 7-35 19-47l83-85c11-10 16-24 16-39 0-13 11-24 24-24l39 0c13 0 24 11 24 24l0 34c-1 40-20 58-37 76z m28-110c0-8-7-15-15-15l-39 0c-8 0-14 7-14 15 0 17-7 33-19 46l-83 84c-11 11-17 25-17 40l0 140c10-1 32-6 32-46l1-50c0-23 5-35 16-54 0 0 0-1 0-1l11-13 25-36c1-2 2-3 4-3 1 0 2 0 3 1 2 2 3 4 1 6l-25 36c-1 4-5 15-3 23 2 2 4 5 8 6 0 1 2 1 3 1 13 0 34-26 49-46 7-8 14-16 19-22 3-3 6-6 9-9 18-18 33-32 34-69l0-34z m-15-29l-39 0c-16 0-29 13-29 29 0 14-5 26-14 35l-84 85c-13 14-20 32-20 51l0 143c0 5 3 9 9 10l1 0 4 0c7 0 47-3 47-61l1-50c0-13 2-21 6-30 3 4 8 8 14 10 1 1 4 1 7 1 19 0 39-24 60-49l1-2c8-10 15-18 18-21l9-9c18-19 37-37 38-79l0-34c0-16-13-29-29-29z m-167 333l0-134c0-13 6-26 15-36l84-84c13-14 20-32 20-50 0-5 4-9 9-9l39 0c5 0 9 4 9 9l0 6 1 0 0 28c-1 34-15 47-32 65l-9 9c-6 6-12 13-18 21l-2 2c-11 14-34 44-45 44 0 0-1 0-1 0l0 0c-3-2-4-3-5-4-1-5 1-13 3-18l24-36c2-1 2-4 2-6 0-3-2-6-4-7l-1-1c-2-1-4-1-5-1-4 0-7 2-8 4l-1 1-24 36-10 12c-1 1-2 2-2 3-11 20-17 32-17 56l0 49c0 29-12 38-22 41z m52-146l5-6c-2 4-3 9-3 13z m428 161c0 0-2 0-4 0-10 0-42-4-42-56l-1-50c0-19-4-28-12-44 0 2-1 5-2 7-2 6-7 10-13 12-2 1-4 1-6 1-18 0-38-25-57-49-7-9-13-17-18-22-3-3-6-6-9-8-17-18-36-36-37-77l0-33c0-13 11-24 24-24l39 0c13 0 24 11 24 24 0 15 5 29 16 39l83 85c13 12 19 29 19 47l0 143c0 3-2 4-4 5z m-5-148c0-15-6-29-17-40l-83-86c-12-12-19-28-19-45 0-8-6-15-15-15l-38 0c-8 0-15 6-15 15l0 33c1 36 16 52 34 69 3 3 6 6 9 9 5 5 12 13 19 22 15 19 36 46 49 46 1 0 2 0 3-1 4-1 7-3 8-7 3-7-1-18-3-22l-30-42c-2-3-1-5 1-7 1 0 2 0 3 0 2 0 3 0 4 2l30 43 11 14c0 0 0 0 0 0 11 20 16 31 16 54l1 50c0 40 21 46 32 46l0-138z m-133-200l-39 0c-16 0-29 13-29 29l0 33c1 44 21 63 39 80l8 9c5 4 10 12 17 19l1 2c20 25 40 51 61 51 3 0 6 0 7-1 6-2 11-6 14-10 4 9 6 17 6 30l1 50c0 58 40 61 48 61l5 0c5-1 8-5 8-10l0-143c0-20-7-38-20-51l-84-85c-9-9-14-21-14-35 0-16-13-29-29-29z m58 202c-1 0-1 0-1 0-11 0-34-29-45-43l-2-2c-6-8-12-16-18-21l-8-9c-17-16-32-30-33-65l0-33c0-6 4-10 10-10l38 0c5 0 9 4 9 10 0 18 8 36 21 49l83 85c10 10 16 23 16 37l0 132c-9-2-22-10-22-40l0-50c0-25-7-37-17-56l-2-3 0 0-10-12-30-43c-2-3-4-5-8-5-1 0-4 0-6 2-2 1-4 3-4 6-1 2 0 5 2 8l29 42c2 5 4 13 3 17-1 2-2 3-4 4l-1 0c0 0 0 0 0 0z m15-15c0-2-1-4-1-6l1 2z m-32 124c0 83-68 150-150 150-83 0-151-67-151-150 0-83 68-150 150-150 83 0 151 67 151 150z m-291-5l59 0c1-23 5-44 11-61-19-9-31-20-36-25-20 23-33 53-34 86z m55 78c-1-4-1-7 0-11 1-6 5-11 10-14-4-14-6-29-6-44l-59 0c1 33 13 63 33 86 3-3 10-10 22-17z m193 17c20-23 32-53 33-86l-36 0c-1 10-9 17-18 19-2 16-6 31-10 44 16 9 27 19 31 23z m-25-104c-7 0-14 6-14 14 0 7 7 14 14 14 8 0 14-7 14-14 0-8-6-14-14-14z m-6 36c-8-2-14-9-16-18l-55 0 0 44c26 1 46 7 63 14 3-11 7-25 8-40z m-143 23c1 0 2 0 3 0 8 0 14 3 19 9 13-3 26-5 40-5l0-44-67 0c0 14 2 27 5 40z m71 13l0 83 1 0c6-4 40-24 59-70-16-6-36-13-60-13z m-9 0c-12 0-24 2-37 5 2 4 1 8 0 12-2 6-5 10-9 12 15 28 35 44 46 50z m-54 23c4-2 7-5 8-8 2-5 1-10-1-13-4-5-10-7-15-5-5 1-9 5-10 10-1 4 0 8 2 12 3 3 7 5 11 5 2-1 4-1 5-1z m-13-86l67 0 0-46c-22 0-42-5-57-12-6 17-10 36-10 58z m67-55l0-78c-12 8-38 29-54 67 15 6 32 11 54 11z m9-81l0 81c24 0 44-7 59-13-19-45-52-65-58-68z m0 90l0 46 55 0c2-8 9-15 17-17-2-17-5-30-10-43-16 8-37 14-62 14z m82 28c9 2 17 9 18 18l36 0c-1-33-14-63-34-87-5 5-15 15-31 23 5 13 9 29 11 46z m15 120c-3-4-13-12-29-21-13 31-33 52-47 62 30-5 56-20 76-41z m-120 43c-12-10-28-25-41-50-8 1-17-1-22-8l-1-1c-10 7-17 13-20 16 23 23 52 39 84 43z m-82-239c5 5 16 15 34 24 13-33 35-54 49-65-33 4-61 19-83 41z m126-40c14 11 34 31 47 61 14-8 24-17 28-21-20-20-46-34-75-40z m-26-16c-86 0-155 69-155 155 0 85 70 155 156 155 85 0 155-70 155-155 0-86-70-155-156-155z m11 90l0-67c11 8 32 25 46 56-15 6-31 10-46 11z m-103-34c16-15 35-26 57-32-12 12-24 27-34 49-11-6-18-12-23-17z m167 13c-8-17-19-31-28-41 17 6 33 16 47 28-5 4-11 9-19 13z m-126 12c12-25 28-42 41-53l0 62c-17-1-31-5-41-9z m133 8c11-6 19-13 25-18 17 22 26 47 28 74l-25 0c-3-8-10-15-19-17-1-14-4-27-9-39z m-216 56c2-27 12-53 28-74 7 6 16 14 30 21-6 16-9 34-10 53l-48 0z m145-35c18-1 36-5 53-13 3 11 6 21 7 32-7 3-12 9-15 16l-45 0z m-76 35c0-16 3-31 7-46 16 6 32 10 49 11l0 35z m148 18c-4 0-8-4-8-8 0-5 4-9 8-9 5 0 9 4 9 9 0 4-4 8-9 8z m-72 2l46 0c2 7 8 13 15 16-2 9-4 18-7 29-17-7-35-11-54-12z m98 0l26 0c-2 26-11 51-27 72-7-6-16-12-25-18 4-11 7-24 8-37 9-3 16-9 18-17z m-243 0l48 0c1 12 2 25 5 36-5 4-8 9-9 15-1 3-1 6-1 9-7 5-12 9-16 12-16-21-26-46-27-72z m68 0l56 0 0 33c-10 1-21 2-32 5-5-5-12-9-20-9-2-9-3-19-4-29z m-3 63c-2-2-2-5-2-7 1-3 3-5 6-6 1 0 2 0 3 0 2 0 5 1 6 3 3 3 2 6 1 8 0 2-2 4-4 4-1 1-1 1-2 1-1 0-2 0-3 0-2 0-4-1-5-3z m80 58l0-68c16 1 31 5 47 11-14 32-36 49-47 57z m-46-64c9-2 17-3 25-4l0 64c-10-8-23-21-33-38 3-4 6-8 7-12 1-4 2-7 1-10z m81 60c11-10 21-25 30-43 8 5 15 10 19 13-14 14-31 24-49 30z m-140-30c3-2 6-5 11-9 6 5 13 8 21 8 7 13 16 24 26 34-22-5-41-17-58-33z"/>
<glyph glyph-name="receive-verified-suppliers" unicode="&#109;" d="M256 493l11-9c0 0 21-17 55-36 31-17 80-38 137-44l14-1 1-15c0-3 3-66-22-143-14-45-35-86-62-121-33-43-76-78-127-102l-7-3-7 3c-51 24-94 59-127 102-27 35-48 76-62 121-25 77-22 140-22 143l1 15 14 1c57 6 106 27 137 44 34 19 55 36 55 36l11 9m0 19c-4 0-9-1-12-4l-11-10c0 0-20-16-52-33-29-16-76-37-130-42l-14-2c-10-1-17-8-17-17l-1-15c0-3-2-70 23-150 15-47 37-89 65-126 35-46 80-82 134-108l7-3c3-1 5-2 8-2 3 0 5 1 8 2l7 3c54 26 99 62 134 108 28 37 50 79 65 126 25 80 23 147 23 150l-1 15c0 9-7 16-17 17l-14 2c-54 5-101 26-130 42-32 17-52 33-52 33l-11 10c-3 3-8 4-12 4z m81-165l37-37-145-145-36 37-55 54 37 36 54-54 108 109m0 18c-4 0-9-2-13-5l-95-96-41 41c-4 4-9 6-13 6-5 0-10-2-14-6l-36-36c-7-7-7-19 0-26l54-54 37-37c3-3 8-5 13-5 5 0 9 2 13 5l145 145c3 4 5 8 5 13 0 5-2 10-5 13l-36 37c-4 3-9 5-14 5z"/>
<glyph glyph-name="premium-membership" unicode="&#110;" d="M304 52l1 15c0 5 0 10 1 15l0 7c1 13 2 26 3 39 1 9 2 19 3 29 0 6 1 13 1 19 2 14 3 30 4 45 1 6 4 7 7 8 42 15 83 30 125 45 11 4 22 8 33 12l19 7c0 0 1 0 2 1l10 3-3-8c0-1 0-2-1-4 0-2-1-4-2-6-18-44-36-87-54-130-5-12-11-25-16-38-2-3-4-5-7-6-35-15-71-30-107-45z m22 169c0 0 0 0 0-1-1-15-3-31-4-45-1-6-1-13-2-19-1-10-2-19-2-29-2-13-2-26-3-38l-1-8c0-5 0-9-1-14l0-2 7 3c35 15 71 30 107 45 1 0 1 1 2 2 5 13 11 25 16 38 18 43 36 86 54 129 1 0 1 1 1 1l-15-5c-11-4-22-8-33-12-42-15-83-30-125-45-1 0-1 0-1 0z m-128-161l-5 2c-3 1-6 2-9 3-4 2-8 3-13 5l-37 13c-21 8-42 16-63 24-5 2-8 5-10 10-4 9-7 18-10 27-16 46-33 91-49 137 0 1 0 1 0 2l-1 8 12-4c4-1 8-3 12-4l28-10c19-6 38-13 57-19 25-9 49-17 72-25 4-1 6-4 7-8 1-21 2-44 3-66 2-21 4-42 5-63l2-24c0-1 0-1 0-2z m-186 218c16-44 31-87 47-131 3-9 6-18 10-27 1-3 2-4 5-5 21-8 42-16 63-24l37-13c5-2 9-3 13-5 1 0 2-1 3-1l-1 20c-2 21-4 42-5 63-2 22-3 44-4 65 0 1 0 1 0 1 0 0 0 0-1 0-23 8-46 16-72 25-19 6-38 13-57 19l-28 10c-3 1-7 2-10 3z m298-45c-2 0-4 0-6 1-8 6-18 9-30 10-24 3-46 1-66-5-2 0-4-1-6-2-2-1-5-2-7-3-1 0-4-1-7-1-2 0-4 1-5 1-15 5-30 10-45 15l-19 7c-28 9-56 19-84 28 0 1-1 1-2 1-2 1-5 3-6 6-1 2-1 4-1 6l0 1 1 1c2 4 4 10 12 10 1 0 2 0 3 0l2 0c6-1 12-2 17-2 3 0 6 0 8 1 11 2 23 4 34 7l2 1c3 0 7 1 11 2 25 6 50 7 72 4 24-4 46-15 64-35 5 6 11 11 19 16 19 13 40 20 65 21l3 0c22 0 46-4 76-13 15-4 29-5 43-3 1 0 2 1 3 1 5 1 9 0 12-3 2-2 3-6 3-9-1-4-3-8-11-11-37-13-74-26-110-38-7-3-14-5-20-8-7-2-13-4-20-7-1 0-3 0-5 0z m-58 21c7 0 15-1 23-1 13-2 24-5 34-11 0-1 2-1 3-1 7 3 13 5 20 7 7 3 13 5 20 7 36 13 73 26 111 39 2 1 4 2 4 4 0 1 0 2 0 2-1 1-2 1-3 1-2-1-4-1-5-1-15-3-30-1-46 3-29 8-52 12-74 12l-3 0c-23 0-43-7-61-19-8-6-14-12-19-18l-4-4-3 4c-18 20-38 32-62 36-22 3-45 2-69-4-4-1-8-2-11-3l-2 0c-11-3-23-6-35-8-3 0-5 0-9 0-6 0-11 0-18 1-1 0-1 0-2 1-1 0-2 0-2 0-2 0-2-1-4-5l0 0c0-1 0-1 0-2 0 0 1-1 1-1 1 0 2 0 2-1 28-9 56-19 84-28l19-7c15-5 29-10 44-15 1 0 1 0 3 0 1 0 3 0 4 1 3 0 5 1 7 2 2 1 5 2 7 2 15 5 30 7 46 7z m58-9l0-4 0 4z m-58-206c-1 0-3 0-4 0-11 0-21 3-33 9-6 3-9 7-9 14-3 34-6 68-9 102 0 11-1 21-2 32 0 9-1 18-2 27 0 4 2 7 6 9 16 5 33 8 52 8l4 0c14 0 29-1 43-7 11-5 12-6 11-18l0-1c-3-28-6-62-9-96-1-14-2-29-3-43l-1-15c-1-5-3-8-7-11-11-7-23-10-37-10z m-50 185c0 0 0 0 0 0 1-9 1-18 2-27 0-11 1-22 2-32 3-34 5-68 8-102 0-4 2-6 4-7 11-6 21-8 30-9 14 0 26 3 37 10 1 1 2 2 2 4l1 15c1 14 2 29 4 43 3 33 6 67 9 96l0 1c0 3 0 6 0 6-1 1-4 2-6 3-13 6-27 7-40 7l-4 0c-18 0-34-3-49-8 0 0 0 0 0 0z m49 89l-14 10-17-4-9 15-17 3-3 17-15 9 5 17-11 14 11 14-5 17 15 9 3 18 17 2 9 15 17-4 14 11 15-11 17 4 9-15 17-2 3-18 15-9-5-17 11-14-11-14 5-17-15-9-3-17-17-3-9-15-17 4z m-13 15c0 0 1-1 2-1l11-9 12 9c1 0 2 1 2 1l1 0 15-4 7 13c1 1 2 1 3 1l14 2 2 15c1 1 1 2 2 3l13 7-4 14c0 1 0 3 1 3l8 12-8 12c-1 1-1 2-1 3l4 14-13 8c-1 0-1 1-2 2l-2 15-14 2c-1 0-2 1-3 2l-7 12-16-3c0 0-1 0-2 0l-12 9-11-9c-1 0-2 0-2 0l-1 0-15 3-7-12c-1-1-2-2-3-2l-14-2-2-15c-1-1-1-2-2-2l-13-8 4-14c0-1 0-2-1-3l-8-12 8-12c1 0 1-2 1-3l-4-14 13-7c1-1 1-2 2-3l2-14 14-3c1 0 2 0 3-1l7-13z m13 123c-31 0-56-26-56-57 0-31 25-56 56-56 32 0 57 25 57 56 0 31-25 57-57 57z m0-110c-29 0-53 24-53 53 0 30 24 54 53 54 30 0 54-24 54-54 0-29-24-53-54-53z m25 14l-49 0c-4 0-6 3-6 7l0 0c0 2 0 4 1 5l-7 28c-4 1-8 4-8 9 0 5 4 9 9 9 6 0 10-4 10-9 0 0 0 0 0 0 7-2 15 2 19 8-3 2-5 6-5 10 0 6 5 11 11 11 7 0 12-5 12-11 0-4-2-8-5-10 4-6 12-10 19-8 0 0 0 0 0 0 0 5 4 9 10 9 5 0 9-4 9-9 0-5-4-9-8-9l-7-28c1-1 1-3 1-5l0 0c0-4-2-7-6-7z m-60 54c-2 0-5-2-5-5 0-3 3-5 5-5l2 0 1-2 8-32-1-1c-1 0-1-1-1-2l0 0c0-2 1-2 2-2l49 0c1 0 2 0 2 2l0 0c0 1 0 2-1 2l-1 1 8 34 2 0c0 0 0 0 0 0 3 0 6 2 6 5 0 3-3 5-5 5-3 0-6-2-6-5 0 0 1-1 1-1l0-2-2-1c-2-1-4-1-7-1-8 0-16 5-20 13l-1 2 2 1c3 1 5 4 5 7 0 4-4 7-7 7-4 0-8-3-8-7 0-3 2-6 5-7l2-1-1-2c-4-8-12-13-20-13-3 0-5 0-7 1l-2 1 0 2c1 0 1 1 1 1 0 3-3 5-6 5z"/>
<glyph glyph-name="offer-zones" unicode="&#111;" d="M131 419c-2 2-4 3-7 3-3 0-5-1-7-3-2-2-3-4-3-7 0-3 1-5 3-7 2-2 4-3 7-3 3 0 5 1 7 3 2 2 3 4 3 7 0 3-1 5-3 7z m371 3l-338 0c-6 0-10-4-10-10 0-6 4-10 10-10l328 0 0-292-472 0 0 292 65 0c6 0 10 4 10 10 0 6-4 10-10 10l-75 0c-6 0-10-4-10-10l0-312c0-6 4-10 10-10l492 0c6 0 10 4 10 10l0 312c0 6-4 10-10 10z m-266-98l-28 0c3 5 4 10 4 16 0 20-16 36-36 36-10 0-19-4-26-11-7 7-16 11-26 11-20 0-36-16-36-36 0-6 1-11 4-16l-28 0c-6 0-10-5-10-10l0-60c0-6 4-10 10-10l0-58c0-17 13-30 30-30l112 0c17 0 30 13 30 30l0 58c6 0 10 4 10 10l0 60c0 5-4 10-10 10z m-120-148l-22 0c-6 0-10 4-10 10l0 58 32 0z m0 88l-42 0 0 40 42 0z m-8 76c0 9 7 16 16 16 9 0 16-7 16-16l0-16-16 0c-9 0-16 7-16 16z m56-86l0-78-28 0 0 128 28 0z m-4 70l0 16c0 9 7 16 16 16 9 0 16-7 16-16 0-9-7-16-16-16z m56-138c0-6-4-10-10-10l-22 0 0 68 32 0z m10 78l-42 0 0 40 42 0z m174 96c-4 3-11 1-13-4l-54-95c-3-5-1-11 4-14 1 0 3-1 5-1 3 0 7 2 8 5l54 96c3 4 1 10-4 13z m9-60c-16 0-30-13-30-30 0-16 14-30 30-30 17 0 30 14 30 30 0 17-13 30-30 30z m0-40c-5 0-10 5-10 10 0 6 5 10 10 10 6 0 10-4 10-10 0-5-4-10-10-10z m-70 118c-16 0-30-14-30-30 0-17 14-30 30-30 17 0 30 13 30 30 0 16-13 30-30 30z m0-40c-5 0-10 4-10 10 0 5 5 10 10 10 6 0 10-5 10-10 0-6-4-10-10-10z m109-124l-147 0c-6 0-10-4-10-10 0-6 4-10 10-10l147 0c6 0 10 4 10 10 0 6-4 10-10 10z m-74-42l-73 0c-6 0-10-5-10-10 0-6 4-10 10-10l73 0c6 0 10 4 10 10 0 5-4 10-10 10z m44-3c-2 2-4 3-7 3-2 0-5-1-7-3-2-2-3-5-3-7 0-3 1-6 3-7 2-2 5-3 7-3 3 0 5 1 7 3 2 1 3 4 3 7 0 2-1 5-3 7z"/>
<glyph glyph-name="news-events" unicode="&#112;" d="M503 399c0 0 0 0 0 0l-68 0 0 50c0 4-3 7-7 7l-382 0c-25 0-45-20-45-45l0-310c0-25 20-45 45-45l420 0c25 0 45 20 45 45l0 291c0 4-3 7-8 7z m-457-329c-16 0-30 14-30 31l0 310c0 17 14 30 30 30l375 0 0-340c0-11 4-22 11-30z m450 31c0-17-14-30-30-31-17 0-30 13-30 30 0 0 0 0 0 1l0 283 60 0 0-283z m-379 310c-3 0-6-3-6-6l0-41-32 45c-2 2-5 3-8 1-1-1-2-3-2-4l0-58c0-3 2-6 5-6 1 0 1 0 1 0 3 0 5 3 5 5l0 42 32-44 1-1c1-1 2-2 4-2 3 0 5 3 5 5l0 58c0 3-2 6-5 6z m61-58l-27 0 0 19 23 0c3 0 5 3 5 6-1 2-3 4-5 5l-23 0 0 18 27 0c3 0 5 2 5 5 0 3-2 6-5 6l-33 0c-3 0-5-3-5-6l0-58c0-3 2-6 5-6 0 0 0 0 0 0l33 0c3 0 5 3 5 6-1 3-3 5-5 5z m105 58c-3 1-6 0-7-3l-20-46-13 30c-1 2-3 4-5 4-2 0-4-2-5-4l-13-30-20 46c-1 2-5 3-7 1-2-1-3-3-3-5l30-58c0-1 0-1 0-1l0-1c0 0 0 0 1 0 0 0 1 0 1-1l3 0c0 0 1 0 1 0l1 1 0 0 1 1 0 1 13 30 13-30c0-1 0-1 0-1l0-1 1 0c0 0 0 0 1-1l3 0c0 0 1 0 1 1l1 0 0 1c0 0 0 0 1 1l24 58c1 2 0 5-3 7z m72-39c-2 3-6 6-10 8-4 2-9 3-14 4-4 1-8 2-12 5-1 0-2 1-3 2 0 1 0 2 0 3 0 3 1 5 3 6 4 3 8 4 12 4 6 0 11-3 16-7 2-1 5-1 6 1 0 1 1 1 1 1 1 2 1 5-2 7-6 5-14 8-21 8-7 0-13-2-18-5-5-4-7-9-8-15 0-3 1-6 3-8 2-4 5-6 9-8 4-2 8-3 13-4 5-1 9-2 13-4 2-1 3-2 3-3 1-1 1-3 1-4 0-3-1-5-4-7-4-2-8-4-12-3-7 0-14 3-19 7-3 2-6 2-8-1-1-2-1-5 1-7 7-6 16-9 26-10 6 0 13 2 18 6 5 3 8 9 9 15 0 3-1 6-3 9z m7-54l-300 0c-4 0-7-3-7-7 0-4 3-8 7-8l300 0c5 0 8 4 8 8 0 4-3 7-8 7z m-33-60l-267 0c-4 0-7-4-7-8 0-4 3-7 7-7l267 0c4 0 8 3 8 7 0 4-4 8-8 8z m0-39l-267 0c-4 0-7-3-7-7 0-4 3-8 7-8l267 0c4 0 8 4 8 8 0 4-4 7-8 7z m0-38l-267 0c-4 0-7-3-7-8 0-4 3-7 7-7l267 0c4 0 8 3 8 7 0 5-4 8-8 8z m0-39l-267 0c-4 0-7-3-7-7 0-4 3-8 7-8l267 0c4 0 8 4 8 8 0 4-4 7-8 7z"/>
<glyph glyph-name="tim-communication" unicode="&#113;" d="M187 89l-24 6c-7 1-12 8-12 15l0 8c18 11 30 32 30 55l0 47c0 0 0 0 0 0l0 0c0 0-1 0-1 0 0 1 0 3-1 4-2 3-7 4-10 2-7-4-22-7-30-7-20 0-39 7-55 20l-19 20c3 5 7 10 12 13 18 16 41 16 41 16 14-1 27-7 39-19 11-11 19-26 24-45 2-4 6-6 10-5 4 1 6 5 5 9-6 22-15 39-28 52-19 18-37 22-49 23-1 0-17 1-34-7-8 3-17 5-26 5-32 0-59-26-59-59 0-15 6-30 17-41 9-9 21-15 33-17l0-11c0-24 13-45 32-57l0-6c0-7-5-14-12-15l-24-6c-23-5-39-25-39-49l0-31c0-4 3-7 8-7l203 0c4 0 8 3 8 7l0 31c0 24-16 44-39 49z m-137 110c-20 4-35 22-35 43 0 24 20 44 44 44 3 0 6 0 9-1 0 0-1-1-1-1-7-6-13-13-18-21 0 0 0 0 0 0 0 0 0 0 0-1 0 0 0 0 0 0 0 0 0 0 0 0-5-7-8-15-10-24-1-8-2-16-1-24 0-2 1-4 3-5 1-1 3-1 5-1 0 0 1 0 1 0 1 0 2 0 3 1z m6 28c-1 0-2-1-3-1 0 0 0 0 0 0 0 3 0 6 1 9 1 3 2 6 3 9 3-3 6-7 10-10-4-3-8-5-9-6-1 0-1-1-2-1z m9-54l0 42c0 0 0 0 0 0 3 1 8 4 14 9 18-13 39-20 60-20 6 0 17 1 26 4l0-35c0-28-22-51-50-51-27 0-50 23-50 51z m146-156l-189 0 0 23c0 16 11 31 28 34l2 1c7-12 18-22 31-28 1-1 2-1 3-1 3 0 6 1 7 4 2 4 0 8-4 10-8 4-16 11-22 19l6 1c14 3 24 16 24 30 6-2 12-3 18-3 7 0 14 1 20 4l0-1c0-14 10-27 25-30l5-1c-11-16-29-25-49-25-4 0-7-4-7-8 0-4 3-7 7-7 27 0 51 13 65 36l2-1c16-3 28-18 28-34l0-23z m-112 180c0-3-3-6-7-6-3 0-6 3-6 6 0 4 3 7 6 7 4 0 7-3 7-7z m43 0c0-3-3-6-6-6-4 0-6 3-6 6 0 4 2 7 6 7 3 0 6-3 6-7z m-20-40c-4-4-10-4-14 0-3 3-7 3-10 0-3-3-3-8 0-11 4-5 11-7 17-7 6 0 13 2 17 7 3 3 3 8 0 11-3 3-7 3-10 0z m260-18c7 0 13 2 18 7 3 3 3 8 0 11-3 3-8 3-11 0-4-4-10-4-13 0-3 3-8 3-11 0-3-3-3-8 0-11 5-5 11-7 17-7z m103-56c-4 2-9 0-11-3-2-4 0-9 3-11 13-6 20-17 20-29l0-23-31 0 0 9c0 4-3 7-8 7-4 0-7-3-7-7l0-9-136 0 0 9c0 4-4 7-8 7-4 0-7-3-7-7l0-9-32 0 0 23c0 16 14 31 34 34l29 6c3 1 6 2 9 3 12-9 27-14 43-14 15 0 30 5 42 14 3-1 6-2 10-3l19-4c1 0 1 0 2 0 3 0 6 3 7 6 1 4-2 8-6 9l-19 4c-9 2-16 8-16 15l0 11c15 12 25 31 25 52l0 47c0 0 0 0 0 0l0 0c0 0 0 0 0 0 0 1-1 3-1 4-3 3-7 4-11 2-6-4-21-7-30-7-20 0-39 7-55 20l-19 20c4 5 8 10 12 13 19 16 41 16 41 16 14-1 27-7 39-19 11-11 20-26 25-45 1-4 5-6 9-5 4 1 6 5 5 9-6 22-15 39-28 52-19 18-37 22-49 23-1 0-28 1-52-19-7-6-13-13-18-21 0 0 0 0 0 0 0 0 0 0 0 0 0-1 0-1 0-1 0 0 0 0 0 0-5-7-8-15-10-24-1-8-2-16-1-24 1-2 2-4 3-5 2-1 3-1 5-1 0 0 1 0 2 0 1 0 1 0 2 1l0-36c0-22 11-41 27-53l0-10c0-7-6-13-15-15l-29-6c-27-5-46-25-46-49l0-31c0-4 4-7 8-7l243 0c5 0 8 3 8 7l0 31c0 17-10 33-27 43z m-102 1c-11 0-22 3-31 9 4 5 6 11 6 17l0 2c8-3 15-5 24-5 9 0 17 2 25 5l0-2c0-6 2-12 6-17-9-6-20-9-30-9z m-61 143c-1 0-2-1-2-1-1 0-1 0-1 0 0 3 1 6 1 9 1 3 2 6 3 9 3-3 7-7 10-10-4-3-7-5-9-6 0 0-1-1-2-1z m10-54l0 42c0 0 0 0 0 0 2 1 7 4 13 9 18-13 39-20 60-20 6 0 17 1 27 4l0-35c0-28-23-51-50-51-28 0-50 23-50 51z m33 24c0-3-3-6-6-6-4 0-7 3-7 6 0 4 3 7 7 7 3 0 6-3 6-7z m44 0c0-3-3-6-7-6-3 0-6 3-6 6 0 4 3 7 6 7 4 0 7-3 7-7z m-57 151c20 18 31 43 31 70-1 51-42 92-93 92 0 0-1 0-1 0-25 0-48-10-66-28-8-9-15-19-19-30l-41 0c-4 0-7-3-7-7 0-4 3-8 7-8l36 0c-1-5-2-10-2-15l-37 0c-4 0-7-3-7-7 0-5 3-8 7-8l38 0c0-5 1-10 3-15l-38 0c-4 0-7-3-7-8 0-4 3-7 7-7l43 0c5-9 11-18 18-25 2-2 4-4 6-5-9-5-20-7-30-7-7 0-13 0-20 2-2 0-5 0-7-2-10-11-23-14-28-16-1 0-2 0-3-1 5 8 8 17 10 27 0 2-1 5-3 7-18 15-29 37-29 61 1 43 35 77 78 77 0 0 0 0 0 0 5 0 10 0 14-1 4-1 8 2 9 6 1 4-2 8-6 9-6 1-11 1-16 1-1 0-1 0-1 0-51 0-93-41-93-92 0-27 11-52 31-70-2-7-5-16-11-23-3-3-3-8-1-12 2-4 6-6 10-6 1 0 1 0 2 0 4 0 9 1 14 3 5 1 18 5 31 16 6-1 13-2 19-1 16 0 31 4 44 12 13-8 28-12 43-12 7-1 14 0 20 1 12-11 26-15 31-16 5-2 9-3 14-3 1 0 1 0 2 0 4 0 8 2 10 6 2 4 1 9-2 12-5 7-9 16-10 23z m-10-24c-4 2-17 5-28 16-1 1-3 2-5 2 0 0-1 0-2 0-6-2-13-2-19-2-14 0-28 4-39 12-1 0-1 0-2 0-4 3-8 7-12 11-7 7-13 15-17 24 0 0 0 0 0 0-4 9-6 19-6 29 0 21 8 41 22 56 15 15 34 23 55 23 0 0 1 0 1 0 42 0 77-34 78-77 0-24-11-46-29-61-3-2-4-5-3-7 2-10 5-19 9-27-1 1-2 1-3 1z m-8 130l-85 0c-4 0-8-4-8-8 0-4 4-7 8-7l85 0c4 0 8 3 8 7 0 4-4 8-8 8z m0-31l-85 0c-4 0-8-3-8-7 0-4 4-8 8-8l85 0c4 0 8 4 8 8 0 4-4 7-8 7z m-41-30l-44 0c-4 0-8-3-8-7 0-4 4-8 8-8l44 0c4 0 7 4 7 8 0 4-3 7-7 7z"/>
<glyph glyph-name="trade-fairs" unicode="&#114;" d="M472 335c11 10 18 25 18 42 0 32-26 59-58 59-33 0-59-27-59-59 0-20 11-38 27-49-11-7-19-20-19-34l0-59-33 0 0 42c0 30-23 55-52 58 12 11 19 26 19 42 0 32-27 59-59 59-32 0-59-27-59-59 0-16 7-31 19-42-29-3-52-28-52-58l0-42-33 0 0 59c0 14-8 27-19 34 16 11 27 29 27 49 0 32-26 59-59 59-32 0-58-27-58-59 0-17 7-32 18-42-20-3-35-21-35-41l0-126c0-20 15-37 34-41l0-126 16 0 0 125 76 0 0-117c0-4 3-8 8-8l50 0c5 0 8 4 8 8l0 134 51 0 0-125-34 0 0-17 84 0 0 17-34 0 0 125 51 0 0-134c0-4 3-8 8-8l50 0c5 0 8 4 8 8l0 117 76 0 0-125 16 0 0 126c19 4 34 21 34 41l0 126c0 20-15 38-35 41z m-82 42c0 23 18 42 42 42 23 0 41-19 41-42 0-23-18-42-41-42-24 0-42 19-42 42z m-176 0c0 23 19 42 42 42 23 0 42-19 42-42 0-23-19-42-42-42-23 0-42 19-42 42z m55-58l-13-35-13 35z m-88-42c0 23 19 42 42 42l2 0 23-62c1-3 5-5 8-5 3 0 7 2 8 5l23 62 2 0c23 0 42-19 42-42l0-42-33 0c-5 0-9-4-9-8l0-34-66 0 0 34c0 4-4 8-9 8l-33 0z m-142 100c0 23 18 42 41 42 24 0 42-19 42-42 0-23-18-42-42-42-23 0-41 19-41 42z m142-359l-34 0 0 117c0 4-3 8-8 8l-92 0c-14 0-25 11-25 25l0 126c0 13 11 25 25 25l42 0c14 0 25-12 25-25l0-67c0-5 4-9 8-9l84 0 0-25-117 0 0 76-17 0 0-84c0-5 4-8 8-8l76 0c14 0 25-12 25-25z m134 142l-118 0c-2 6-4 12-8 17l134 0c-4-5-6-11-8-17z m175 8c0-14-11-25-25-25l-92 0c-5 0-8-4-8-8l0-117-34 0 0 134c0 13 11 25 25 25l76 0c4 0 8 3 8 8l0 84-17 0 0-76-117 0 0 25 84 0c4 0 8 4 8 9l0 67c0 13 11 25 25 25l42 0c14 0 25-12 25-25z m-242 67l16 0 0-17-16 0z m-34 276l-117 0c-4 0-8-4-8-8l0-42c0-5 4-9 8-9l34 0 0-16c0-3 1-6 4-8 1 0 3-1 4-1 2 0 4 1 5 2l31 23 39 0c5 0 9 4 9 9l0 42c0 4-4 8-9 8z m-8-42l-34 0c-1 0-3 0-5-2l-20-15 0 9c0 4-3 8-8 8l-33 0 0 25 100 0z m92 17l17 0 0-17-17 0z m33 0l17 0 0-17-17 0z m34 0l16 0 0-17-16 0z"/>
<glyph glyph-name="wholesalers" unicode="&#115;" d="M27 1l189 0c15 0 26 12 26 26l0 189c0 15-11 26-26 26l-71 0c-5 0-9-4-9-8l0-61-28 0 0 61c0 4-3 8-8 8l-73 0c-14 0-26-11-26-26l0-189c0-14 12-26 26-26z m-9 215c0 5 4 10 9 10l65 0 0-61c0-4 4-8 8-8l45 0c4 0 8 4 8 8l0 61 63 0c5 0 10-5 10-10l0-189c0-5-5-9-10-9l-189 0c-5 0-9 4-9 9l0 189z m359 18c0 4-3 8-8 8l-73 0c-15 0-26-11-26-26l0-189c0-14 11-26 26-26l189 0c14 0 26 12 26 26l0 189c0 15-12 26-26 26l-71 0c-5 0-9-4-9-8l0-61-28 0z m37-77c4 0 8 4 8 8l0 61 63 0c5 0 9-5 9-10l0-189c0-5-4-9-9-9l-189 0c-5 0-10 4-10 9l0 189c0 5 5 10 10 10l65 0 0-61c0-4 4-8 8-8l45 0z m-250 113l190 0c14 0 25 11 25 26l0 189c0 14-11 26-25 26l-72 0c-5 0-8-4-8-8l0-61-28 0 0 61c0 4-4 8-8 8l-74 0c-14 0-26-12-26-26l0-189c0-15 12-26 26-26z m-9 215c0 5 4 9 9 9l65 0 0-60c0-4 4-8 9-8l44 0c5 0 8 4 8 8l0 60 64 0c5 0 9-4 9-9l0-189c0-5-4-10-9-10l-190 0c-5 0-9 5-9 10z"/>
<glyph glyph-name="textile-market" unicode="&#116;" d="M196 166l-102 0 0 118 35 0 0-19 35 0 0 19 32 0z m-95 7l88 0 0 104-19 0 0-18-47 0 0 18-22 0z m47 2c-9 0-18 8-18 18 0 10 9 18 18 18 10 0 18-8 18-18 0-10-8-18-18-18z m0 30c-6 0-11-5-11-12 0-6 5-11 11-11 7 0 12 5 12 11 0 7-5 12-12 12z m50-41l-106 0 0 122 39 0 0-19 31 0 0 19 36 0z m-102 4l98 0 0 114-28 0 0-19-39 0 0 19-31 0z m95 2l-93 0 0 109 27 0 0-18 43 0 0 18 23 0z m-35 5l31 0 0 100-15 0 0-18-51 0 0 18-18 0 0-100 38 0c-8 3-13 10-13 18 0 11 9 20 20 20 12 0 21-9 21-20 0-8-5-15-13-18z m-8 34c-8 0-15-7-15-16 0-9 7-16 15-16 9 0 16 7 16 16 0 9-7 16-16 16z m0-30c-7 0-13 7-13 14 0 8 6 14 13 14 8 0 14-6 14-14 0-7-6-14-14-14z m0 24c-5 0-9-5-9-10 0-5 4-9 9-9 6 0 10 4 10 9 0 5-4 10-10 10z m302-69l-388 0 0 125-17 0 0 78 93 104 21 0-62-106 0-20 26 0 0 22 62 104 17 0-32-103 0-23 24 0 0 22 31 104 14 0 0-126 35 0-4 126 19 0 25-91 0-35 31 0 0 20-27 106 22 0 53-105 0-21 26 0 0 19-64 107 23 0 89-104 0-78-17 0z m-381 7l374 0 0 124 17 0 0 70-85 100-9 0 60-99 0-27-39 0 0 25-51 101-10 0 26-100 0-26-44 0 0 40-24 86-7 0 3-126-47 0 0 126-3 0-29-99 0-27-37 0 0 31 29 95-5 0-59-100 0-26-38 0 0 28 57 98-7 0-89-100 0-70 17 0z m383-9l-392 0 0 125-17 0 0 81 94 105 26 0-64-108 0-17 22 0 0 20 62 105 22 0-33-105 0-20 20 0 0 20 32 105 17 0 0-125 31 0-4 125 23 0 25-93 0-32 27 0 0 16-28 109 26 0 54-107 0-18 22 0 0 15-66 110 28 0 1-1 89-104 0-81-17 0 0-125z m-387 5l382 0 0 124 18 0 0 76-88 102-18 0 62-104 0-22-30 0 0 22-53 104-17 0 27-104 0-22-36 0 0 37-24 89-16 0 4-126-39 0 0 126-10 0-31-102 0-24-28 0 0 26 31 100-13 0-61-103 0-23-30 0 0 23 61 103-17 0-92-102 0-76 18 0z m380 2l-378 0 0 124-17 0 0 73 90 101 12 0-59-101 0-25 34 0 0 25 60 101 9 0-30-98 0-28 32 0 0 25 30 101 7 0 0-126 43 0-3 126 11 0 24-88 0-38 40 0 0 24-27 102 14 0 52-102 0-24 34 0 0 24-60 102 13 0 1-1 85-100 0-73-17 0z m-374 4l370 0 0 124 17 0 0 67-84 98-4 0 58-96 0-29-44 0 0 27-50 98-5 0 25-97 0-28-48 0 0 42-23 83-4 0 3-125-51 0 0 123-28-95 0-28-41 0 0 33 28 92-1 0-58-97 0-28-42 0 0 31 55 94-2 0-88-98 0-67 17 0z m442-72l-514 0 0 3c0 28 23 51 51 51l412 0c28 0 51-23 51-51z m-508 6l502 0c-2 23-21 42-45 42l-412 0c-24 0-43-19-45-42z m510-8l-518 0 0 5c0 29 24 53 53 53l412 0c29 0 53-24 53-53z m-514 4l510 0 0 1c0 27-22 49-49 49l-412 0c-27 0-49-22-49-49z m508 2l-506 0 0 3c2 24 22 43 47 43l412 0c25 0 45-19 47-43z m-501 5l496 0c-2 20-20 36-42 36l-412 0c-22 0-40-16-42-36z m410 86l-197 0 0 99 12 0 0 19 48 0 1-19 26 0 0 19 44 0 0-19 35 0 0 19 31 0 0-118z m-191 7l184 0 0 104-18 0 0-18-48 0 0 18-31 0 0-18-39 0 0 18-36 0 0-18-12 0 0-86z m193-9l-201 0 0 103 12 0 0 19 52 0 1-19 22 0 0 19 48 0 0-19 30 0 0 19 36 0z m-197 4l193 0 0 114-27 0 0-19-39 0 0 19-40 0 0-19-31 0 0 19-44 0 0-19-12 0z m191 2l-189 0 0 91 12 0 0 18 40 0 0-18 35 0 0 18 36 0 0-18 43 0 0 18 23 0z m-184 5l179 0 0 100-14 0 0-18-52 0 0 18-27 0 0-18-43 0 0 18-32 0 0-18-11 0z"/>
<glyph glyph-name="new-to-tim" unicode="&#117;" d="M264 333c-19-5-40 0-56 14 0 5 2 14 15 17 2 1 18 3 19 15 1 2 1 5-4 12-6 9-10 25-5 34 3 6 9 9 17 9 8 0 14-3 17-9 5-9 1-25-6-34-4-7-4-10-4-12 1-6 6-10 11-12 1 2 3 3 5 4-4 1-10 4-10 9 0 0 0 0 0 0 0 1 0 3 3 8 7 11 12 28 5 40-2 5-8 11-21 11-13 0-19-6-22-11-6-12-2-29 6-40 3-5 3-8 3-8 0 0 0 0 0 0-1-8-15-10-15-10 0 0 0 0 0 0-13-4-17-12-18-19-14 13-21 30-21 48 0 37 30 67 67 67 36 0 66-30 66-67 0-12-3-24-9-34 2-1 3-3 4-4 7 11 11 24 11 38 0 40-33 72-72 72-40 0-72-32-72-72 0-21 9-40 24-54 0 0 0 0 0 0 14-13 31-19 48-19 6 0 12 1 17 2-1 1-2 3-3 5z m23-7c-12 0-21 9-21 21 0 12 9 21 21 21 12 0 21-9 21-21 0-12-9-21-21-21z m0 38c-9 0-17-8-17-17 0-9 8-17 17-17 9 0 17 8 17 17 0 9-8 17-17 17z m2-25l0 6 6 0 0 5-6 0 0 5-4 0 0-5-6 0 0-5 6 0 0-6z m-35-1l0 0-1 0z m-6 11l0 0 0 0z m55-295l1 15c0 5 1 10 1 15l0 7c1 13 2 26 3 39 1 9 2 19 3 29 1 6 1 13 2 19 1 14 2 30 4 45 0 6 3 7 6 8 42 15 84 30 126 45 10 4 21 8 32 12l19 7c1 0 1 0 2 1l10 3-2-8c-1-1-1-2-1-4-1-2-1-4-2-6-19-44-37-87-55-130-5-12-10-25-16-38-1-3-4-5-6-6-36-15-72-30-108-45z m22 169c0 0 0 0 0-1-1-15-2-31-4-45 0-6-1-13-1-19-1-10-2-19-3-29-1-13-2-26-3-38l-1-8c0-5 0-9 0-14l0-2 6 3c36 15 72 30 107 45 1 0 2 1 2 2 6 13 11 25 16 38 18 43 37 86 55 129 0 0 0 1 0 1l-15-5c-11-4-22-8-32-12-42-15-84-30-126-45 0 0-1 0-1 0z m-127-161l-6 2c-3 1-6 2-9 3-4 2-8 3-12 5l-38 13c-21 8-42 16-63 24-4 2-8 5-10 10-3 9-7 18-10 27-16 46-32 91-49 137 0 1 0 1 0 2l-1 8 12-4c4-1 8-3 12-4l28-10c19-6 38-13 58-19 25-9 48-17 72-25 4-1 6-4 6-8 1-21 2-44 4-66 1-21 3-42 4-63l2-24c0-1 0-1 0-2z m-187 218c16-44 32-87 47-131 3-9 7-18 10-27 1-3 3-4 5-5 21-8 42-16 63-24l38-14c4-1 8-2 12-4 1 0 2-1 3-1l-1 20c-2 21-3 42-5 62-1 23-3 45-4 66 0 1 0 1 0 1 0 0 0 0 0 0-23 8-47 16-72 25-19 6-38 13-57 19l-29 10c-3 1-6 2-10 3z m299-45c-3 0-5 0-7 1-8 6-18 9-30 10-24 3-45 1-65-5-2 0-4-1-6-2-3-1-5-2-8-3-1 0-4-1-7-1-2 0-4 1-5 1-15 5-30 10-45 15l-19 7c-27 9-55 19-83 28-1 1-2 1-3 1-2 1-4 3-5 6-1 2-2 4-1 6l0 1 0 1c2 4 5 10 12 10 1 0 2 0 4 0 0 0 1 0 2 0 6-1 11-2 17-2 2 0 5 0 7 1 12 2 23 4 34 7l3 1c3 1 7 1 10 2 25 6 50 7 73 4 24-4 45-15 64-35 5 6 11 11 18 16 19 13 40 20 65 21l3 0c23 0 47-4 77-13 14-4 29-5 42-3 1 0 2 1 4 1 4 1 8 0 11-3 2-2 3-6 3-9-1-4-3-8-10-11-38-13-77-27-111-39-6-2-12-4-17-6l-3-1c-6-2-13-4-20-7-1 0-3 0-4 0z m-59 21c8 0 15-1 23-1 14-2 25-5 34-11 1-1 2-1 3-1 7 3 14 5 20 7l3 1c6 2 11 4 17 6 34 12 73 26 111 39 2 1 4 2 4 4 1 1 0 2 0 2-1 1-2 1-3 1-2-1-3-1-5-1-14-3-30-1-46 3-29 8-52 12-74 12l-3 0c-23 0-43-7-60-19-8-6-15-12-20-18l-3-4-4 4c-17 20-38 32-61 36-22 3-46 1-70-4-3-1-7-2-10-2l-2-1c-12-3-24-6-35-8-3 0-6 0-9 0-6 0-12 0-18 1-1 0-2 0-3 0-1 1-1 1-2 1-1 0-2-1-4-5l0 0c0-1 0-1 0-2 1 0 1-1 2-1 0 0 1 0 2-1 27-9 55-19 83-28l19-7c15-5 30-10 45-15 0 0 1 0 2 0 2 0 4 0 5 1 2 0 4 1 7 2 2 1 4 2 6 2 15 5 30 7 46 7z m59-9l0-4 0 4z m-59-206c-1 0-3 0-4 0-10 0-21 3-33 9-6 3-8 7-9 14-3 34-6 68-8 102-1 11-2 21-2 32-1 9-2 18-2 27-1 4 1 7 6 9 15 5 32 8 52 8l4 0c14 0 29-1 43-7 11-5 12-6 11-18l-1-1c-2-28-6-62-9-96-1-14-2-29-3-43l-1-15c0-5-2-8-6-11-11-7-24-10-38-10z m-50 185c0 0 0 0 0 0 1-9 2-18 2-27 1-11 2-22 2-33 3-33 6-67 8-101 1-4 2-6 5-7 11-6 20-8 29-9 15 0 27 3 37 10 2 1 2 2 3 4l1 15c1 14 2 29 3 43 3 33 6 67 9 96l0 1c0 3 1 6 0 6 0 1-3 2-6 3-12 6-26 7-39 7l-4 0c-19 0-35-3-49-8-1 0-1 0-1 0z"/>
<glyph glyph-name="multiple-quote-from-sellers" unicode="&#118;" d="M504 281c-4 0-7-3-7-7l0-184c0-10-8-19-18-19l-380 0c-4 0-7-3-7-7 0-4 3-8 7-8l380 0c18 0 33 15 33 34l0 184c0 4-3 7-8 7z m-25 175l-446 0c-18 0-33-15-33-34l0-332c0-19 15-34 33-34l36 0c4 0 8 4 8 8 0 4-4 7-8 7l-36 0c-10 0-18 9-18 19l0 287 482 0 0-73c0-4 3-8 7-8 5 0 8 4 8 8l0 118c0 19-15 34-33 34z m18-64l-482 0 0 30c0 10 8 19 18 19l446 0c10 0 18-9 18-19z m-90 30l-77 0c-4 0-7-4-7-8 0-4 3-7 7-7l77 0c4 0 8 3 8 7 0 4-4 8-8 8z m-107 0l-251 0c-4 0-8-4-8-8 0-4 4-7 8-7l251 0c4 0 8 3 8 7 0 4-4 8-8 8z m183-12l-6 4 6 5c3 3 3 8 0 11-3 3-7 3-10 0l-7-6-7 6c-3 3-8 3-11 0-3-3-2-8 1-11l5-5-5-4c-5-5-2-14 5-14 4 0 6 4 12 8l6-6c4-3 8-2 11 1 3 3 3 8 0 11z m-47-130c-13 3-14 2-15 4l-6 12c-6 11-23 11-28 0l-6-12c-1-1-1-2-2-2l-14-2c-5 0-10-5-12-10-2-6-1-12 4-16l10-10c0 0 0-1 0-2l-2-13c-2-13 11-23 23-17 12 6 12 8 14 7l12-7c11-6 25 4 22 17l-2 13c0 2 1 2 10 12 10 9 5 25-8 26z m-1-17l-10-9c-4-4-5-9-4-14l2-13c0-1 0-2-1-2 0-1-1-1-2-1l-12 7c-5 2-10 2-15 0l-12-7c-1 0-3 1-3 3l3 13c0 5-1 10-5 14l-10 9c0 1 0 2 0 3 0 0 0 1 1 1l14 2c5 1 9 4 12 8l6 13c0 1 1 1 2 1 0 0 1 0 1-1l6-13c3-4 7-7 12-8l14-2c1 0 1-1 1-1 1-1 1-2 0-3z m52-112l-29 57c42 48 7 125-57 125-42 0-76-34-76-75 0-19 7-37 19-50l-30-57c-5-11 5-21 15-17l8 3c4 2 9 0 10-5l2-8c1-6 6-10 12-10 4 0 8 3 10 7l30 56 29-56c2-4 6-7 11-7 5 0 10 4 11 10 2 6 1 11 6 13 4 3 8-1 14-3 10-4 21 7 15 17z m-126-20c0 2 0 13-11 18-6 3-12 3-18 1l-4-2 26 50c10-8 21-13 34-15z m-11 90c-7 10-11 23-11 37 0 34 27 62 62 62 57 0 83-72 40-109-27-24-69-19-91 10z m102-72c-11-5-11-16-12-18l-27 52c13 2 25 7 34 15l26-50c-2 1-11 7-21 1z m-150 112l-20 51c-8 22-29 36-52 36-39 0-94 0-132 0-23 0-44-14-52-35-11-28-17-44-20-52-5-12-4-26 4-37 5-8 13-14 23-16l0-83c0-14 11-26 26-26l169 0c15 0 26 12 26 26l0 83c10 2 18 8 24 16 7 11 8 25 4 37z m-131 72l34 0c19-90 19-85 18-91-3-12-13-20-26-20-12 0-22 8-25 20-1 4-1-1-1 91z m-15 0c0-93 0-87-1-91-3-12-13-20-25-20-12 0-23 8-26 20-1 5-2-2 18 91z m-103-109c-12 4-19 18-13 31 3 9 9 24 20 52 6 16 21 26 38 26l9 0c-25-115-15-71-19-90-2-10-10-18-20-21-5-1-10 0-15 2z m182-110l-44 0 0 70c0 1 0 1 1 1l42 0c0 0 1 0 1-1z m24 11c0-6-4-10-9-11l0 70c0 9-7 16-16 16l-42 0c-9 0-16-7-16-16l0-70-97 0c-6 0-11 5-11 11l0 82c11 2 22 8 28 17 8-10 20-17 34-17 14 0 26 7 34 17 16-23 51-23 67 0 7-9 17-15 28-17z m6 97c-13 0-24 9-26 22l-19 89 10 0c16 0 32-10 38-26l20-52c6-16-6-33-23-33z m-112-23l-58 0c-8 0-16-8-16-16l0-35c0-9 8-16 16-16l58 0c9 0 16 7 16 16l0 35c0 8-7 16-16 16z m0-52l-58 0c0 0-1 0-1 1l0 35c0 0 1 0 1 0l58 0c0 0 1 0 1 0-1-35 1-36-1-36z m-33 29c-3 2-8 2-10-1l-5-5c-5-5-1-13 5-13 5 0 7 4 11 8 3 3 2 8-1 11z m23 0c-3 3-8 3-10 0l-11-11c-4-5 0-13 6-13 5 0 7 5 16 14 3 3 2 8-1 10z"/>
<glyph glyph-name="textile-industry" unicode="&#119;" d="M161 511c-32 0-61-8-83-22-21-13-35-32-35-54l0-299c0-21 14-41 35-54 22-14 51-22 83-22 32 0 61 8 83 22 12 8 22 17 28 28 1 1 1 1 1 1 9 7 23 9 36 9 4 0 8-1 12-1 1-49 18-79 44-96 27-18 62-22 99-22 3 0 5 3 5 6l0 302c0 4-2 6-5 6-33 0-62 8-83 19l0 47c0 38-33 65-72 65-9 0-19 0-30-5-2 20-16 36-35 48-22 14-51 22-83 22z m0-12c30 0 57-8 77-20 19-12 30-27 30-44l0-269c-7 10-17 18-29 24-21 12-48 19-78 19-30 0-57-7-78-19-12-6-21-14-29-24l0 269c0 17 11 32 31 44 19 12 46 20 76 20z m148-65c33 0 60-21 60-53l0-278c-13 18-35 29-60 29-9 0-20-1-30-5 0 3 1 6 1 10l0 291c9 6 18 6 29 6z m72-114c21-9 47-15 77-16l0-291c-29 1-56 4-77 15z m-220-123c28 0 54-7 73-17 19-11 31-25 33-40 1-1 1-1 1-1l0-3c0-16-11-32-30-44-20-12-47-20-77-20-30 0-57 8-76 20-20 12-31 28-31 44l0 3c1 0 1 0 1 1 3 15 15 29 34 40 19 10 44 17 72 17z m0-24c-20 0-39-4-53-10-7-3-12-7-17-12-4-5-7-10-7-17 0-6 3-12 7-16 5-5 10-9 17-12 14-6 33-10 53-10 21 0 39 4 53 10 7 3 13 7 17 12 4 4 7 10 7 16 0 7-3 12-7 17-4 5-10 9-17 12-14 6-32 10-53 10z m0-12c19 0 36-4 48-9 6-3 10-6 13-9 3-3 4-6 4-9 0-2-1-5-4-8-3-3-7-6-13-9-12-6-29-9-48-9-19 0-36 3-48 9-6 3-10 6-13 9-3 3-4 6-4 8 0 3 1 6 4 9 3 3 7 6 13 9 12 5 29 9 48 9z m172-45c20-8 34-24 35-45 0 0 1-1 1-1l0-35c-21 15-34 39-36 81z"/>
<glyph glyph-name="tell-your-requirement" unicode="&#120;" d="M176 416l128 0 0-16-128 0z m0-32l272 0 0-16-272 0z m0-233l128 0 0-16-128 0z m0-32l272 0 0-16-272 0z m-85 267l-11 11-11-11 22-23 43 48-12 10z m-27-291l64 0 0 64-64 0z m16 48l32 0 0-32-32 0z m96 98l128 0 0-16-128 0z m0-32l272 0 0-16-272 0z m-112-24l64 0 0 64-64 0z m16 48l32 0 0-32-32 0z m96 97l128 0 0-16-128 0z m0-32l272 0 0-16-272 0z m-112-24l64 0 0 64-64 0z m16 48l32 0 0-32-32 0z m377 142l-402 0c-30 0-55-25-55-55l0-306c0-31 25-55 55-55l402 0c31 0 55 24 55 55l0 306c0 30-24 55-55 55z m39-361c0-22-17-39-39-39l-402 0c-22 0-39 17-39 39l0 306c0 22 17 39 39 39l402 0c22 0 39-17 39-39z"/>
<glyph glyph-name="multiple-quote-and-closed" unicode="&#121;" d="M512 256c0 141-115 256-256 256-44 0-87-11-126-33l-31 0 0 33-49 0 0-105c-33-44-50-96-50-151 0-141 115-256 256-256 31 0 62 6 91 17 17-11 37-17 58-17 25 0 50 9 70 26l-11 13c-16-15-38-22-59-22-50 0-91 40-91 90 0 50 41 91 91 91 50 0 90-41 90-91 0-21-6-40-20-57l13-10c16 19 24 43 24 67 0 21-6 41-17 58 11 29 17 60 17 91z m-380 173l17 0 0-115-17 0z m-33 33l17 0 0-148-17 0z m-33 33l17 0 0-181-17 0z m182-478c-126 4-227 105-231 231l231 0 0-231z m0 247l-231 0c1 40 12 79 33 113l0-80 181 0 0 83-33 0 0 33-33 0 0 33-33 0 0 15c35 21 75 33 116 34l0-231z m-83 50l0 82 17 0 0-82z m33 0l0 49 17 0 0-49z m297-50l-70 0 60 61c6-19 10-40 10-61z m-41 127l-93-92 12-12 90 90c6-11 12-23 16-35l-78-78-51 0 11 11-12 12-22-23-51 0 155 155c8-9 16-18 23-28z m-190 104c21 0 42-4 61-10l-61-60z m0-168l101 100-12 12-89-89 0 51 78 78c12-4 24-10 35-16l-14-14 12-11 16 16c10-7 19-15 28-23l-155-155z m141-112c-60 0-108-48-108-108 0-31 14-59 35-78-22-8-45-12-68-12l0 231 231 0c0-23-5-46-12-68-19 21-47 35-78 35z m-193-14l-99-99-11 11 99 99z m-22-52c-14 0-25-11-25-25 0-14 11-25 25-25 14 0 25 11 25 25 0 14-11 25-25 25z m0-33c-5 0-8 3-8 8 0 4 3 8 8 8 4 0 8-4 8-8 0-5-4-8-8-8z m-66 99c-14 0-25-11-25-25 0-14 11-25 25-25 14 0 25 11 25 25 0 14-11 25-25 25z m0-33c-5 0-8 3-8 8 0 4 3 8 8 8 4 0 8-4 8-8 0-5-4-8-8-8z m281-66c-9 0-17 7-17 16 0 9 8 17 17 17 9 0 16-8 16-17l17 0c0 15-11 28-25 32l0 18-17 0 0-18c-14-4-24-17-24-32 0-18 14-33 33-33 9 0 16-7 16-16 0-10-7-17-16-17-9 0-17 7-17 17l-16 0c0-16 10-29 24-32l0-18 17 0 0 18c14 3 25 16 25 32 0 18-15 33-33 33z m57 0l17 0 0-17-17 0z m-132 0l17 0 0-17-17 0z"/>
<glyph glyph-name="learning-center" unicode="&#122;" d="M247 179l18 0 0-17-18 0z m222 290l-34 0c0 19-15 34-34 34l-17 0c-5 0-9-3-9-8l0-26-85 0c-2 0-4-1-6-2l-28-28-28 28c-2 1-4 2-6 2l-179 0c-5 0-9-3-9-8l0-299c0-19 15-34 34-34l123 0-34-68-46 0c-14 0-26-12-26-26 0-14 12-25 26-25l290 0c14 0 26 11 26 25 0 14-12 26-26 26l-46 0-34 68 123 0c19 0 34 15 34 34l0 299c0 5-4 8-9 8z m-76 17l8 0c9 0 17-7 17-17l0-175c-5 3-11 5-17 5l-8 0z m-128-63l29 29 81 0 0-25-34 0 0-17 34 0 0-17-85 0 0-18 85 0 0-17-85 0 0-17 85 0 0-17-85 0 0-17 85 0 0-17c0-5 4-8 9-8l17 0c9 0 17-8 17-17 0-10-8-18-17-18l-111 0c-2 0-4 0-6-2l-19-20z m-214 29l167 0 29-29 0-198-19 20c-2 2-4 2-6 2l-171 0z m0-222l167 0 17-17-184 0z m350-187c5 0 9-4 9-9 0-5-4-8-9-8l-290 0c-5 0-9 3-9 8 0 5 4 9 9 9z m-65 17l-160 0 34 68 92 0z m125 102c0-9-8-17-17-17l-376 0c-9 0-17 8-17 17l0 34 410 0z m0 51l-184 0 17 17 167 0z m0 34l-31 0c4 6 5 12 5 18l0 187 26 0z m-367 180l17 0 0-17-17 0z m-17-34l145 0 0-18-145 0z m0-35l145 0 0-17-145 0z m0-34l145 0 0-17-145 0z m0-34l111 0 0-17-111 0z m51 137l94 0 0-17-94 0z m179 0l17 0 0-17-17 0z m-17-137l60 0 0-17-60 0z m-230-179c-24 0-43 19-43 43l0 102-17 0 0-102c0-33 27-60 60-60l25 0 0 17z m-60 179l17 0 0-17-17 0z m495 145l17 0 0-179-17 0z m0-196l17 0 0-17-17 0z"/>
<glyph glyph-name="tell-your-needs" unicode="&#65;" d="M441 2l-382 0 0 495 239 0 0-142 143 0z m-369 13l356 0 0 327-142 0 0 143-214 0z m381 363l-128 0 0 128 64-63z m-115 12l85 0-43 44-42 41z m26-69c11 1 18-17 10-24l-57-57-10-9-10 9-29 28c-6 5-7 16-2 21 6 6 17 6 22 0l19-19 46 48c3 2 7 3 11 3z m-124-118l-122 0 0 122 122 0z m-113 9l105 0 0 104-105 0z m113-151l-122 0 0 123 122 0z m-113 9l105 0 0 105-105 0z m237 109c11 1 18-17 10-24l-57-57-10-9-10 9-29 28c-6 5-7 15-2 21 6 6 17 6 22 0l19-19 46 48c3 2 7 3 11 3z"/>
<glyph glyph-name="suppliers-by-region" unicode="&#66;" d="M446 19l-67 142c-2 3-4 5-7 6l-33 15 58 97c0 1 0 1 0 1 12 23 18 47 18 72 0 43-17 83-48 113-30 30-70 47-113 46-42-1-81-17-110-47-30-30-46-69-47-111 0-25 6-50 18-73 0 0 0 0 0-1l58-97-34-15c-2-1-5-3-6-6l-67-142c-2-5-1-10 2-14 4-4 10-5 14-3l85 38 84-38c3-1 7-1 10 0l84 38 85-38c1-1 3-1 5-1 3 0 6 1 9 4 3 4 4 9 2 14z m-309 273c-10 19-15 40-14 61 0 72 59 132 131 133 36 0 70-13 96-39 25-25 39-59 39-95 0-21-4-41-14-60l-108-181c-3-6-9-7-11-7-2 0-7 1-11 7z m213-227c-3 1-7 1-10 0l-84-38-84 38c-3 1-7 1-10 0l-59-26 51 107 32 15 38-63c6-12 19-19 32-19 13 0 26 7 32 19l38 63 32-15 51-107z m-94 345c-32 0-57-26-57-58 0-31 25-57 57-57 32 0 57 26 57 57 0 32-25 58-57 58z m0-90c-18 0-32 15-32 32 0 18 14 33 32 33 18 0 32-15 32-33 0-17-14-32-32-32z m1 90c-32 0-58-26-58-58 0-31 26-57 58-57 31 0 57 26 57 57 0 32-26 58-57 58z m0-90c-18 0-33 15-33 32 0 18 15 33 33 33 17 0 32-15 32-33 0-17-15-32-32-32z m0 88c-32 0-58-26-58-58 0-31 26-57 58-57 31 0 57 26 57 57 0 32-26 58-57 58z m0-90c-18 0-33 15-33 32 0 18 15 33 33 33 17 0 32-15 32-33 0-17-15-32-32-32z"/>
<glyph glyph-name="knowledge-center" unicode="&#67;" d="M458 71c0 19-16 34-35 34l-86 0c-5 0-9-4-9-8 0-5 4-9 9-9l86 0c10 0 18-8 18-17 0-2 0-4-1-6-5 3-11 4-17 4l-118 0c8 13 6 31-5 42l-99 99c-14 15-41 26-62 26l-121 0c-4 0-8-4-8-9 0-4 4-8 8-8l121 0c16 0 39-9 50-21l99-99c7-6 7-18 0-25-7-7-18-7-25 0l-80 81c-4 3-9 3-12 0-4-3-4-9 0-12l80-81c7-6 15-10 24-10 0 0 0 0 1 0l147 0c10 0 18-8 18-17 0-10-8-18-18-18l-165 0c-4 0-12 2-16 4l-167 104c0 0-1 0-1 0-6 3-17 6-24 6l-32 0c-4 0-8-4-8-8 0-5 4-9 8-9l32 0c4 0 12-2 16-4l168-103c0 0 0 0 0 0 6-4 17-7 24-7l165 0c19 0 35 16 35 35 0 6-2 12-5 18 3 5 5 11 5 18z m-92 441c-74 0-135-62-135-138 0-48 25-94 66-118l13-38 0-28c0-18 13-34 13-35 2-2 4-3 6-3l75 0c2 0 4 1 6 3 0 1 13 17 13 35l0 28 13 38c41 24 66 70 66 118 0 76-61 138-136 138z m34-345l-67 0c-2 4-5 9-7 15l81 0c-2-6-5-11-7-15z m8 30l-83 0 0 15 83 0z m18 70c-1-1-2-2-3-4l-13-36-87 0-13 36c-1 2-2 3-3 4-38 22-62 63-62 107 0 68 55 123 121 123 67 0 122-55 122-123 0-44-24-85-62-107z m-11 98c-14 11-31 16-49 16-17 0-34-5-48-16-3-2-4-6-2-9l24-68 0-39c0-4 3-7 7-7 4 0 7 3 7 7l0 33 25 0 0-33c0-4 3-7 7-7 4 0 7 3 7 7l0 39 24 68c2 3 1 7-2 9z m-36-68l-25 0 0 2c0 7 6 13 12 13 7 0 13-6 13-13z m9 19c-5 6-13 11-22 11-8 0-16-5-21-11l-14 40c11 7 23 10 35 10 13 0 25-3 36-10z"/>
<glyph glyph-name="help-seller" unicode="&#68;" d="M110 16l-15 21c-3 4-10 6-14 2-5-3-6-9-3-14l16-21c1-3 5-4 8-4 2 0 4 1 5 2 5 3 6 9 3 14z m115-4l-16 78c-8 38-30 71-62 93l-35 23c-14 10-33 8-45-4l0 120c0 16-11 29-26 33-10 2-21 0-28-7-8-6-13-16-13-26l0-155c0-20 6-40 18-56l18-25c2-3 5-5 8-5 2 0 4 1 6 2 4 3 5 10 2 14l-18 25c-9 13-14 29-14 45l0 155c0 4 2 8 5 11 3 2 7 3 11 2 7-1 11-7 11-13l0-123c0-17 6-34 18-47 0 0 1-1 2-2 6-7 14-15 21-23l11-11c0 0 0 0 0 0 9-9 15-16 15-16 4-4 10-4 14-1 4 4 5 10 1 14 0 1-12 13-26 27l-22 25c0 0-1 0-1 0-5 6-5 16 1 22 5 6 13 7 19 3l35-24c28-19 47-47 54-80l17-78c1-5 5-8 9-8 1 0 2 0 2 0 6 1 9 7 8 12z m-151 54l0 0c-3 5-9 6-14 3-4-4-5-10-2-14l0 0c2-3 5-5 8-5 2 0 4 1 6 2 4 3 5 10 2 14z m425 282c-7 7-18 9-28 7-15-4-26-17-26-33l0-120c-12 12-31 14-45 4l-35-23c-32-22-54-55-62-93l-16-78c-1-5 2-11 8-12 0 0 1 0 2 0 4 0 8 3 9 8l17 78c7 33 26 61 54 80l35 24c6 4 14 3 19-3 6-6 6-16 1-22 0 0 0 0-1 0 0 0-48-51-48-52-4-4-3-10 1-14 4-3 10-3 14 1 0 0 41 43 47 50 1 1 2 2 2 2 12 13 18 30 18 47l0 123c0 6 4 12 11 13 4 1 8 0 11-2 3-3 5-7 5-11l0-155c0-16-5-32-14-45l-76-106c-3-5-2-11 3-14 1-1 3-2 5-2 3 0 7 1 8 4l76 107c12 16 18 36 18 56l0 155c0 10-5 20-13 26z m-116-28l-18 5 0 3c11 8 19 21 19 36l0 24c0 24-20 44-45 44-11 0-21-4-29-10-8 21-29 36-54 36-24 0-45-15-54-36-8 6-18 10-29 10-25 0-45-20-45-44l0-24c0-15 8-28 19-36l0-3-18-5c-21-5-36-24-36-45l0-19c0-6 5-10 10-10l46 0c0-1 0-2 0-4l0-36c0-5 5-10 10-10l60 0c6 0 10 5 10 10 0 6-4 10-10 10l-10 0 0 21c0 6-4 10-10 10-6 0-10-4-10-10l0-21-20 0 0 26c0 20 13 36 32 41l28 6 18-42c1-3 5-5 9-5 4 0 8 2 9 5l19 42 27-6c19-5 32-21 32-41l0-26-20 0 0 21c0 6-4 10-10 10-6 0-10-4-10-10l0-21-11 0c-6 0-10-4-10-10 0-5 4-10 10-10l61 0c5 0 10 5 10 10l0 36c0 1 0 3 0 4l46 0c5 0 10 4 10 10l0 19c0 21-15 40-36 45z m-44 92c13 0 24-10 25-23l-14 0c-12 0-23 3-33 8 3 9 12 15 22 15z m-24-46c0 0 0 1 0 1l0 9c11-4 23-7 35-7l14 0 0-5c0-13-11-24-25-24-13 0-24 11-24 24z m-97 34c0 21 17 38 38 38 19 0 35-14 38-32l-17 10c-4 2-9 1-13-3-8-9-20-15-33-15l-13 0z m-45 12c10 0 19-6 23-15-11-5-22-8-34-8l-14 0c1 13 12 23 25 23z m-25-43l14 0c12 0 24 3 36 7l0-12c0-13-11-24-25-24-14 0-25 11-25 24z m48-67c-19-5-35-18-42-36l-41 0 0 9c0 12 9 23 21 26l26 6c4 1 7 5 7 10l0 3c2 0 4 0 6 0 2 0 4 0 5 0l0-3c0 0 0 0 0 0 0-4 2-7 5-9 1 0 2-1 4-1l14-4z m28 16c-2 1-5 2-8 2l-18 5 0 3c4 2 7 5 9 8 5-7 10-13 17-18z m44-15l-12-27-12 27 0 7c4-1 8-1 12-1 4 0 8 0 12 1z m-12 26c-21 0-38 17-38 38l0 11 13 0c16 0 31 6 43 16l21-12 0-16c-1-21-18-37-39-37z m32-11l0 0c7 5 13 11 17 18 3-3 5-6 9-8l0-3-18-5c-3 0-6-1-8-2z m111-52l-41 0c-7 18-23 31-42 36l-5 1 15 4c1 0 2 1 3 1 3 2 5 5 5 9 0 0 0 0 0 0l0 3c2 0 3 0 5 0 2 0 4 0 6 0l0-3c0-5 3-9 8-10l25-6c12-3 21-14 21-26z m-136-53c-2 2-4 3-7 3-3 0-5-1-7-3-2-1-3-4-3-7 0-2 1-5 3-7 2-2 4-3 7-3 3 0 5 1 7 3 2 2 3 5 3 7 0 3-1 6-3 7z m-7 299c-6 0-10-4-10-10l0-15c0-5 4-10 10-10 6 0 10 5 10 10l0 15c0 6-4 10-10 10z m-37-33l-10 11c-4 4-11 4-14 0-4-4-4-10 0-14l10-11c2-2 5-3 7-3 3 0 5 1 7 3 4 4 4 10 0 14z m98 11c-4 4-10 4-14 0l-10-11c-4-4-4-10 0-14 2-2 4-3 7-3 2 0 5 1 7 3l10 10c4 4 4 11 0 15z"/>
<glyph glyph-name="suppliers" unicode="&#69;" d="M221 35c0 5-4 10-10 10l-144 0c-25 0-45 21-45 46l0 297 62 0 0-39c0-6 5-11 10-11 6 0 11 5 11 11l0 39 124 0 0-39c0-6 4-11 10-11 6 0 11 5 11 11l0 39 62 0 0-21c0-5 4-10 10-10 6 0 11 5 11 10l0 31c0 6-5 10-11 10l-73 0c-1 44-38 80-82 80-45 0-81-36-83-80l-73 0c-5 0-10-4-10-10l0-307c0-37 30-67 66-67l144 0c6 0 10 5 10 11z m-54 432c33 0 60-26 62-59l-124 0c2 33 29 59 62 59z m142-187l0-12-57 0c-6 0-10-4-10-10l0-181c0-29 24-52 53-52l163 0c29 0 53 23 53 52l0 181c0 6-5 10-10 10l-57 0 0 12c0 37-30 68-68 68-37 0-67-31-67-68z m125-68c5 0 10 5 10 10l0 26 46 0 0-171c0-17-14-32-32-32l-163 0c-18 0-33 15-33 32l0 171 47 0 0-26c0-5 4-10 10-10 6 0 10 5 10 10l0 26 94 0 0-26c0-5 5-10 11-10z m-11 68l0-12-94 0 0 12c0 26 22 47 47 47 26 0 47-21 47-47z"/>
<glyph glyph-name="send-your-needs" unicode="&#70;" d="M506 486c-3 3-7 3-11 2l-481-211c-8-3-12-11-12-20 1-9 6-16 14-19l141-47 0-126c0-12 7-22 18-25 11-3 24 1 30 10l59 86 125-108c4-3 9-5 14-5 3 0 5 1 7 1 7 3 12 9 13 16l87 436c0 3-1 8-4 10z m-252-328l-66-96c-2-3-5-2-6-2-1 0-4 2-4 5l0 134c0 4-3 8-7 10l-148 49 427 187-210-173c-5-4-6-11-2-15 2-2 5-4 8-4 2 0 5 1 7 3l183 150z m149-114l-126 109 202 276z m-192 205l-17-14c-4-4-5-11-1-15 2-2 5-3 8-3 2 0 5 0 7 2l17 13c5 4 5 11 1 15-3 4-10 5-15 2z"/>
<glyph glyph-name="help-new-user-guide" unicode="&#71;" d="M132 403c-10 10-23 15-37 15l-2 0c-14 0-27-5-37-15-9-10-14-22-13-35l1-23c1-26 23-47 50-46l0 0c27-1 49 20 50 46l1 23c1 13-4 25-13 35z m-5-57c-1-18-16-31-33-30l0 0c-18-1-32 12-33 30l-1 7c17 0 32 6 45 16 5-7 13-13 22-15z m-11 40c0 4-3 7-7 7-3 1-7-1-9-4 0 0-10-17-40-19 0 8 3 15 8 21 7 6 15 10 25 10l2 0c9 0 18-4 24-10 5-5 8-12 9-19-6 2-10 8-12 14z m349-188c-10 10-23 15-37 15l-3 0c-13 0-27-5-36-15-9-9-14-22-13-35l1-23c1-26 23-47 49-46l1 0c26-1 48 20 50 46l1 23c0 13-4 26-13 35z m-4-34l-1-23c-1-17-16-31-33-30l-1 0c-17-1-31 13-32 30l-1 23c-1 8 2 16 8 22 6 7 15 10 24 10l3 0c9 0 18-3 24-10 6-6 9-14 9-22z m-197 224c-10 9-24 9-33 0l-95-95c-2-2-4-3-7-3l-86 0c-24 0-43-19-43-43l0-119c0-14 11-26 26-26 3 0 5 1 8 2l0-10c0-5 4-9 9-9l102 0c5 0 9 4 9 9l0 138c0 2 0 4 2 6l108 116c9 10 9 25 0 34z m-12-22c0 0 0 0 0 0l-109-116c-4-5-6-11-6-18l0-130-86 0 0 128c0 5-4 9-8 9-5 0-9-4-9-9l0-102c0-5-4-9-8-9-5 0-9 4-9 9l0 119c0 15 12 26 26 26l86 0c7 0 14 3 19 8l95 95c2 2 7 2 9 0 3-3 3-7 0-10z m-158-101c-5 0-9-4-9-9l0-102c0-5 4-9 9-9 5 0 8 4 8 9l0 102c0 5-3 9-8 9z m183-67c-10 10-23 15-37 15l-2 0c-14 0-27-5-37-15-9-9-14-22-13-35l1-23c1-26 23-47 50-46l0 0c27-1 49 20 50 46l1 23c1 13-4 26-13 35z m-4-34l-1-23c-1-17-16-31-33-30l0 0c-18-1-32 13-33 30l-1 23c-1 8 3 16 8 22 7 7 15 10 25 10l2 0c9 0 18-3 25-10 5-6 8-14 8-22z m10-79l-88 0c-23 0-41-18-41-41l0-35c0-5 3-9 8-9 5 0 9 4 9 9l0 35c0 13 10 24 24 24l88 0c13 0 24-11 24-24l0-35c0-5 4-9 9-9 4 0 8 4 8 9l0 35c0 23-18 41-41 41z m188 0l-88 0c-23 0-42-18-42-41l0-35c0-5 4-9 9-9 5 0 8 4 8 9l0 35c0 13 11 24 25 24l88 0c13 0 24-11 24-24l0-35c0-5 4-9 8-9 5 0 9 4 9 9l0 35c0 23-18 41-41 41z m16 427l-300 0c-14 0-25-12-25-26l0-128c0-4 4-8 9-8 4 0 8 4 8 8l0 103 316 0 0-205c0-5-4-8-8-9l-291 0c-5 0-9-3-9-8 0-5 4-9 9-9l291 0c14 1 25 12 25 26l0 230c0 14-11 26-25 26z m8-34l-316 0 0 8c0 5 4 9 8 9l300 0c4 0 8-4 8-9z m-26-75c-4 0-8-4-8-8l0-122c0-5 4-8 8-8 5 0 9 3 9 8l0 122c0 4-4 8-9 8z m-34-53c-5 0-8-4-8-9l0-68c0-5 3-8 8-8 5 0 9 3 9 8l0 68c0 5-4 9-9 9z m-34 17c-5 0-8-4-8-9l0-85c0-5 3-8 8-8 5 0 9 3 9 8l0 85c0 5-4 9-9 9z m-34-51c-5 0-9-4-9-9l0-34c0-5 4-8 9-8 5 0 8 3 8 8l0 34c0 5-3 9-8 9z m107 126c-4 3-9 2-12-2l-29-44-27 20c-4 3-9 3-12-1 0-1 0-1-1-2l-33-66-32-24c-4-3-5-9-2-12 3-4 8-5 12-2l34 26c1 0 2 1 3 3l29 59 26-20c4-3 9-2 12 2 0 0 0 0 0 0l34 51c3 4 2 10-2 12z m-167 2l-102 0c-5 0-9-4-9-9 0-5 4-8 9-8l102 0c5 0 9 3 9 8 0 5-4 9-9 9z m51 0l-17 0c-4 0-8-4-8-9 0-5 4-8 8-8l17 0c5 0 9 3 9 8 0 5-4 9-9 9z"/>
<glyph glyph-name="help-buyers" unicode="&#72;" d="M287 446l-131 0c-4 0-8-4-8-8 0-4 4-8 8-8l131 0c5 0 8 4 8 8 0 4-3 8-8 8z m-230-8c0-5-5-9-10-9-5 0-9 4-9 9 0 5 4 10 9 10 5 0 10-5 10-10z m36 0c0-5-4-9-9-9-6 0-10 4-10 9 0 5 4 10 10 10 5 0 9-5 9-10z m34 0c0-5-4-9-9-9-5 0-10 4-10 9 0 5 5 10 10 10 5 0 9-5 9-10z m294 0c0-5-4-9-9-9-6 0-10 4-10 9 0 5 4 10 10 10 5 0 9-5 9-10z m37-301c0 1 0 3 0 4l0 304c0 20-17 37-38 37l-382 0c-21 0-38-17-38-37l0-304c0-21 17-38 38-38l130 0c4 0 8 4 8 8 0 4-4 8-8 8l-36 0c0 1 1 2 1 3l5 1c9 1 16 9 16 18l0 22c0 9-7 17-16 18l-5 1c-1 3-2 6-4 9l3 5c6 7 5 17-1 23l-16 16c-7 7-17 7-24 2l-4-3c-3 1-6 2-10 4l0 5c-1 9-9 15-18 15l-23 0c-9 0-16-6-17-15l-1-5c-1-1-2-1-2-1l0 158 217 0c4 0 8 3 8 8 0 4-4 8-8 8l-217 0 0 34c0 12 10 22 22 22l382 0c12 0 22-10 22-22l0-34-171 0c-4 0-8-4-8-8 0-5 4-8 8-8l27 0c-4-3-7-5-11-9-9-7-16-16-23-26 0 0 0 0 0 0 0-1 0-1 0-1 0 0 0 0 0 0 0 0 0 0 0 0-6-9-10-19-12-30-1-8-2-15-2-23-7-3-13-11-13-19l0-40c0-12 10-21 21-21l11 0c4-19 16-36 32-47l0-13c0-6-4-12-10-16 0 0 0 0 0 0-4-3-8-4-12-5l-36-7c-34-7-57-32-57-62l0-38c0-5 3-8 8-8l310 0c4 0 8 3 8 8l0 38c0 29-22 54-54 61z m-442 83c3 1 7 3 11 4 3 1 5 3 6 7l1 10c0 1 1 2 2 2l23 0c1 0 2-1 2-2l1-10c1-4 3-6 6-7 6-2 11-4 16-7 3-1 6-1 9 1l8 6c1 1 2 1 3 0l16-16c1-1 1-2 0-3l-6-8c-2-2-3-6-1-9 3-5 5-10 7-16 1-3 3-5 6-5l10-1c1-1 2-2 2-3l0-22c0-1-1-2-2-3l-10-1c-3 0-6-2-6-5-2-5-3-9-5-13l-21 0c7 9 11 21 11 33 0 32-26 57-57 57-12 0-23-3-32-10z m0-42c8 10 19 15 32 15 22 0 41-18 41-41 0-13-6-25-17-33l-34 0c-12 0-22 10-22 22l0 37z m426 217l0-59c-7 18-17 33-29 45-6 5-11 10-17 14l46 0z m0-176l0-78c0 0 0-1 0-1l-23 5c-5 1-9 2-12 5 0 0 0 0-1 0-5 4-9 10-9 16l0 15c5 4 10 9 14 14 15 0 27 11 31 24z m-18-2c1 3 2 6 2 9l1 0c0-4-1-7-3-9z m5 24l0 51 8 0c3 0 5-2 5-5l0-40c0-3-2-6-5-6z m-132 133c24 21 53 20 54 20 18-1 35-9 51-24 14-14 25-33 32-58 0-2 1-3 2-4l-8 0c0 3-3 6-7 6-1 0-3-1-4-2 0 0 0 0 0 0-9-5-29-9-39-9-26 0-51 10-72 27l-25 26c5 7 10 13 16 18z m-31-128l0-5-8 0c-3 0-5 3-5 6l0 40c0 3 2 5 5 5l8 0z m6 67c-1 0-2 0-3-1-1 0-2-1-3-1 0 5 0 10 1 15 2 5 3 10 5 15 5-6 11-12 16-17-5-5-10-8-12-9-2-1-3-1-4-2z m10-67l0 55c0 0 1 0 1 0 3 2 10 6 18 13 23-17 49-26 77-26 9 0 23 2 35 6l0-48c0-13-4-25-10-35l-48 0c-4 0-8-4-8-8 0-4 4-8 8-8l34 0c-11-9-26-15-41-15-37 0-66 29-66 66z m108-102c-12-8-26-13-41-13-15 0-29 5-41 13 5 6 8 14 8 22l0 5c10-4 20-7 32-7 12 0 23 3 34 8l0-6c0-8 3-16 8-22z m63-99l0 14c0 4-3 7-8 7-4 0-7-3-7-7l0-14-178 0 0 14c0 4-3 7-8 7-4 0-7-3-7-7l0-14-44 0 0 31c0 22 19 41 45 46l36 7c5 1 9 3 13 5 15-12 34-19 54-19 20 0 38 7 54 19 4-2 8-4 13-5l36-7c26-5 44-24 44-46l0-31z m-81 190c-3 3-8 3-11 0-8-8-20-8-28 0-3 3-8 3-11 0-2-3-2-7 0-10 7-7 16-11 25-11 9 0 18 4 25 11 3 3 3 7 0 10z m-44 42c0-4-4-8-9-8-4 0-8 4-8 8 0 5 4 8 8 8 5 0 9-3 9-8z m55 0c0-4-4-8-8-8-5 0-8 4-8 8 0 5 3 8 8 8 4 0 8-3 8-8z"/>
<glyph glyph-name="sell-offers" unicode="&#73;" d="M223 7l-175 0c-26 0-47 21-47 47l0 339c0 26 21 47 47 47l175 0c26 0 47-21 47-47l0-338c0-27-21-48-47-48z m-175 411c-14 0-25-10-25-25l0-338c0-14 11-25 25-25l175 0c14 0 25 11 25 25l0 338c0 15-11 25-25 25z m109-57c0-12-10-22-22-22-12 0-21 10-21 22 0 12 9 22 21 22 12 0 22-10 22-22z m-33 144l22 0 0-144-22 0z m99-498l0 22c14 0 25 12 25 25l0 338 58 59c9 9 21 14 34 14 13 0 24-5 33-14l124-124c9-8 14-20 14-33 0-13-5-24-14-34l-240-239c-9-9-21-14-34-14z m47 376l0-319 211 211c4 5 7 11 7 18 0 6-2 13-7 17l-124 125c-10 9-26 9-36 0z m108-72c-6 0-11 2-15 7-5 4-7 9-7 15 0 5 2 11 7 15 8 9 22 9 30 0 9-9 9-22 0-30-3-5-9-7-15-7z m9 14l-15 16 101 101 16-15z"/>
<glyph glyph-name="register" unicode="&#74;" d="M404 204c-2 2-4 4-6 6-29 29-65 50-105 60 42 20 71 63 71 113 0 70-57 127-127 127-70 0-127-57-127-127 0-50 29-93 71-113-40-10-76-31-106-60-43-44-66-101-66-162 0-5 4-10 10-10l306 0c19-22 46-36 77-36 56 0 101 45 101 101 0 56-44 101-99 101z m-274 179c0 59 48 107 107 107 59 0 107-48 107-107 0-59-48-106-107-106-59 0-107 47-107 106z m-101-325c5 110 97 198 208 198 54 0 104-21 141-55-44-11-77-50-77-98 0-16 4-31 11-45z m373-36c-44 0-81 37-81 81 0 45 37 81 81 81 45 0 81-36 81-81 0-44-36-81-81-81z m-249 186c-3 5-9 7-14 4-43-26-75-70-87-119-2-6 2-11 7-12 1-1 2-1 3-1 4 0 8 3 9 8 11 44 40 83 79 106 5 3 6 9 3 14z m84 31c-15 0-30-2-44-6-6-1-9-6-8-12 1-4 6-8 10-8 1 0 2 1 2 1 13 3 27 4 40 4 6 0 10 5 10 10 0 6-4 11-10 11z m207-127l-31 0 0 31c0 6-5 10-11 10-5 0-10-4-10-10l0-31-31 0c-6 0-10-5-10-11 0-5 4-10 10-10l31 0 0-31c0-6 5-10 10-10 6 0 11 4 11 10l0 31 31 0c6 0 10 5 10 10 0 6-4 11-10 11z"/>
<glyph glyph-name="help" unicode="&#75;" d="M501 53l-25 0 0 161c0 4-4 8-8 8-3 0-6-1-7-3l-119-170c-3-4-2-9 2-11 2-1 3-2 5-2l110 0 0-25c0-5 4-9 9-9 4 0 8 4 8 9l0 25 25 0c5 0 9 4 9 8 0 5-4 9-9 9z m-42 0l-94 0 94 134z m-110-34l-100 0 93 110c0 0 0 0 1 1 17 25 11 61-14 79-30 22-72 15-94-15-8-12-13-25-13-40 0-4 4-8 9-8 4 0 8 4 8 8 0 28 23 51 51 51 10 0 21-3 29-9 18-14 22-38 10-57l-105-123c-3-4-2-9 1-12 2-1 4-2 6-2l118 0c5 0 9 4 9 9 0 4-4 8-9 8z m-118 42c0 5-4 9-8 9-111 4-199 93-204 203l34 0c5 0 8 4 8 8 0 5-3 9-8 9l-34 0c5 110 93 198 203 203l0-25c0-5 4-9 9-9 4 0 8 4 8 9l0 25c109-5 196-91 203-199l-33 33c-4 3-9 3-12 0-3-4-3-9 0-12l47-47c1-2 2-2 3-3 1 0 1 0 1 0 1 0 2 0 2-1 0 0 0 0 0 0 0 0 1 0 1 0 0 1 1 1 2 1 0 0 0 0 1 0 1 0 2 1 3 2l48 48c3 3 3 9-1 12-3 3-8 3-11 0l-34-34c-6 121-106 217-228 217 0 0 0 0 0 0-1 0-1 0-1 0-126 0-228-102-228-228 0 0 0 0 0-1 0 0 0 0 0 0 0-123 98-223 220-228l0 0c5 0 9 4 9 8z m113 334c-3 3-8 3-12 0l-91-91c-6 3-14 3-21 0l-43 43c-4 3-9 3-12 0-3-3-3-8 0-12l43-43c-6-12-1-27 12-34 9-4 21-2 29 5 7 8 9 20 4 29l91 91c4 3 4 9 0 12z m-107-120c0 0 0 0 0 0-4-3-9-3-12 0-4 4-4 9 0 12 3 4 8 4 12 0 3-3 3-8 0-12z"/>
<glyph glyph-name="company" unicode="&#76;" d="M367 34l-239 0c-5 0-9-4-9-8l0-17c0-5 4-9 9-9 5 0 9 4 9 9l0 8 230 0c5 0 8 4 8 9 0 4-3 8-8 8z m-179 265c0-5 4-9 8-9l34 0c5 0 9 4 9 9l0 51c0 5-4 8-9 8l-34 0c-4 0-8-3-8-8z m17 42l17 0 0-34-17 0z m-94 69l-102 0c-5 0-9-4-9-9l0-171c0-4 4-8 9-8 4 0 8 4 8 8l0 163 94 0c5 0 8 3 8 8 0 5-3 9-8 9z m299-316c0-5 3-9 8-9l34 0c5 0 9 4 9 9l0 51c0 5-4 9-9 9l-34 0c-5 0-8-4-8-9z m17 43l17 0 0-35-17 0z m-384 68c-43 0-43-110-43-111 0-21 15-38 34-42l0-43c0-5 4-9 9-9 4 0 8 4 8 9l0 43c20 4 34 21 34 42 0 1 0 111-42 111z m0-137c-14 0-26 12-26 26 0 42 11 94 26 94 14 0 25-52 25-94 0-14-11-26-25-26z m51 188l-34 0c-5 0-9-4-9-9l0-17c0-4 4-8 9-8 4 0 8 4 8 8l0 9 17 0 0-43c0-4 4-8 9-8 5 0 8 4 8 8l0 51c0 5-3 9-8 9z m324 34l34 0c5 0 9 4 9 9l0 51c0 5-4 8-9 8l-34 0c-5 0-8-3-8-8l0-51c0-5 3-9 8-9z m9 51l17 0 0-34-17 0z m-333 17l-34 0c-5 0-9-3-9-8l0-51c0-5 4-9 9-9l34 0c5 0 8 4 8 9l0 51c0 5-3 8-8 8z m-9-51l-17 0 0 34 17 0z m188-8c0-5 4-9 9-9l34 0c4 0 8 4 8 9l0 51c0 5-4 8-8 8l-34 0c-5 0-9-3-9-8z m17 42l17 0 0-34-17 0z m213 69l-102 0c-5 0-8-4-8-9 0-5 3-8 8-8l94 0 0-343c-3 1-6 1-9 1-1 0-3 0-4 0-6 10-17 17-30 17-12 0-24-7-29-17-2 0-3 0-5 0-14 0-25-11-25-25 0-15 11-26 25-26l68 0c15 0 26 11 26 26l0 375c0 5-4 9-9 9z m-17-393l-68 0c-5 0-8 4-8 9 0 4 3 8 8 8 2 0 3 0 5-1 2-2 5-2 8-1 2 1 4 3 5 6 1 8 8 13 16 13 8 0 15-5 17-13 0-3 2-5 5-6 3-1 5-1 8 1 5 3 13-1 13-7 0-5-4-9-9-9z m-204 376l34 0c4 0 8 3 8 8l0 51c0 5-4 9-8 9l-34 0c-5 0-9-4-9-9l0-51c0-5 4-8 9-8z m8 51l17 0 0-34-17 0z m-17-248c0-4 4-8 9-8l34 0c4 0 8 4 8 8l0 51c0 5-4 9-8 9l-34 0c-5 0-9-4-9-9z m17 43l17 0 0-34-17 0z m-94 154l34 0c5 0 9 3 9 8l0 51c0 5-4 9-9 9l-34 0c-4 0-8-4-8-9l0-51c0-5 4-8 8-8z m9 51l17 0 0-34-17 0z m45-344c-2-2-3-4-3-6 0-2 1-5 3-6 2-2 4-3 6-3 2 0 4 1 6 3 2 1 3 4 3 6 0 2-1 4-3 6-3 3-9 3-12 0z m-62 96c0-4 4-8 8-8l34 0c5 0 9 4 9 8l0 51c0 5-4 9-9 9l-34 0c-4 0-8-4-8-9z m17 43l17 0 0-34-17 0z m-34-94c0-5 3-8 8-8l26 0 0-77c0-5 4-9 8-9 5 0 9 4 9 9l0 77 68 0 0-77c0-5 4-9 9-9 4 0 8 4 8 9l0 77 26 0c5 0 8 3 8 8 0 5-3 9-8 9l-154 0c-5 0-8-4-8-9z m239 51c0-4 3-8 8-8l34 0c5 0 9 4 9 8l0 51c0 5-4 9-9 9l-34 0c-5 0-8-4-8-9z m17 43l17 0 0-34-17 0z m-60 273l-222 0c-5 0-8-4-8-9l0-443c0-5 3-9 8-9 5 0 9 4 9 9l0 435 204 0 0-435c0-5 4-9 9-9 5 0 8 4 8 9l0 443c0 5-3 9-8 9z"/>
<glyph glyph-name="skin-division" unicode="&#77;" d="M340 437c-18 2-33-12-33-29l1-57c-8 4-20 11-30 23-5 6-13 18-26 35-2 3-6 4-9 2-3-2-4-6-2-9 13-18 22-30 26-36 19-24 45-31 46-31 5-1 9 2 9 7l-1 66c-1 9 8 17 17 15 7 0 12-6 13-12 4-30 17-158 38-179l45-44-122-121-44 44c-2 2-8 7-35 25-3 2-7 1-9-2-2-3-1-7 2-9 25-17 31-22 33-23l44-45c-5-8-5-19 2-26 8-7 21-7 29 0l106 107c3 2 3 7 0 9-2 3-6 3-9 0l-107-106c-2-3-6-3-9 0-3 3-3 7 0 10l135 135c3 2 7 2 10 0 2-3 2-7 0-10l-9-8c-2-3-2-7 0-10 3-2 7-2 10 0l8 9c8 8 8 20 0 28-7 7-18 8-26 3l-44 44c-17 17-32 146-35 170 0 0 0 0 0 0-1 13-11 23-24 25z m-130-296c0 1 1 1 1 1 2 3 1 8-2 10-56 35-132 82-133 82 0 1 0 1 0 1-3 1-4 5-4 8 1 5 6 7 11 5 17-8 52-23 69-28 5-1 14-4 18 3 4 6-3 12-13 21-7 6-17 14-30 23-23 18-51 37-70 50-7 5-9 13-4 20 4 8 14 10 21 4 17-12 41-30 62-43 35-23 45-25 50-19 7 6 1 16-6 25-5 8-14 18-25 31-20 22-45 47-62 64-6 6-6 16 0 22 6 6 16 6 22 0 92-97 106-97 111-97 3 0 6 2 7 3 6 6 5 16-18 54-14 23-31 49-44 67-5 7-3 17 5 22 7 5 17 3 22-4 7-10 17-25 27-41 2-3 6-4 10-2 3 3 3 7 1 10-10 15-20 30-27 40-9 14-27 17-40 9-15-9-18-28-9-42 42-59 57-89 61-100-9 5-34 24-96 90-12 12-30 12-42 1-11-12-11-30 0-41 61-61 82-87 89-98-10 5-35 19-90 60-13 10-32 7-41-8-8-13-4-29 8-38 51-35 81-57 96-70-10 4-28 11-56 25-13 5-27-2-30-16-2-8 2-17 10-22 3-2 78-48 133-83 2-1 6-1 8 1z"/>
<glyph glyph-name="orthopedic" unicode="&#78;" d="M470 64c-1 1-2 1-2 2-2 1-11 5-42 20-21 10-45 22-50 24-11 13-24 137-30 252-4 51-29 63-47 72-4 2-7 3-10 5-94 59-250 42-257 41-4 0-7-4-6-8 0-4 4-7 8-6 1 0 157 17 247-39 4-2 8-4 12-6 17-9 35-18 38-60 0-1 4-63 10-125 12-130 22-135 27-138 5-3 29-14 52-25 18-9 38-18 40-19 1-1 2-2 3-2 4-2 7-4 8-8l-157 0c-3 0-5 1-7 3-5 6-7 17-5 32 6 51-21 104-45 150-20 38-39 74-31 97 1 3 0 5-1 7-2 2-4 3-7 3 0 0-68-8-183 25-4 1-8-1-9-5-1-4 1-8 5-9 94-27 156-27 179-26-3-27 15-61 34-99 23-44 50-95 44-141-2-20 0-35 9-44 4-5 10-8 17-8 0 0 0 0 0 0l165 0c4 0 7 3 7 7 2 19-10 25-16 28z m-103 300c0 0 0 0 0 0 4 0 7 3 8 7 2 62-39 78-41 79-4 1-8-1-9-4-2-4 0-8 4-10 0 0 34-13 31-65 0-3 3-7 7-7z m29 14c0 0 0 0 0 0 4 0 7 3 8 7 2 56-32 71-34 72-3 2-7 0-9-4-2-4 0-8 4-9 1-1 26-13 24-58 0-4 3-7 7-8z m-93-9c0-4 3-7 7-7 0 0 0 0 1 0 4 0 6 4 6 8-2 24-19 31-28 32-4 0-8-3-8-7 0-4 3-7 7-8 2 0 13-1 15-18z m-62-23c-2 0-2-1-3 2-23 31-105 40-114 41-4 1-8-2-8-6-1-4 2-8 6-8 24-3 88-14 104-36 3-4 8-7 13-7 3 0 5 0 7 1-4-5-9-16 3-31 16-20 29-55 38-105 1-3 4-6 7-6 1 0 1 0 2 0 3 1 6 5 5 9-6 37-15 66-26 88 1 0 2 0 3 0 4 1 7 5 6 9 0 3-4 6-8 6-4-1-9 1-12 4 0 0-1 0-1 1-1 1-2 2-3 3-7 9-3 12-2 14 4 4 10 7 15 8 2 0 3 0 3-1 2-2 2-7 1-10 0-4 2-8 6-9 0 0 1 0 1 0 4 0 7 3 7 6 1 5 1 11 0 16 4 0 9-1 13-3 2-1 3-1 1-4-16-35 13-114 16-123 2-3 6-5 9-4 4 1 6 6 5 9-9 23-28 87-17 112 5 8 2 17-6 22-12 8-38 7-55-2 6 8 11 18 14 28 0 0 0 0 0 0 0 1 1 2 1 2 2 9 2 19 0 28-2 5-9 17-29 12-26-6-63-2-110 13-4 1-8-1-9-5-1-4 1-8 5-9 36-11 65-16 89-16 0-1-1-2-1-3-2-4 0-8 4-10 4-1 8 1 9 5 0 0 0 0 0 0 2 4 6 8 10 10 1 0 1 0 2 0 1 1 3 1 4 1 10 3 12-1 12-3 2-6 2-13 0-19-1-2-2-3-3-3-3 0-6 1-9 4-3 2-8 2-10-1-3-3-2-8 1-10 4-4 9-6 14-7-2-5-6-9-10-13z"/>
<glyph glyph-name="nutraceuticals-product" unicode="&#79;" d="M492 281c0 27-22 49-49 50 13 14 23 30 27 49 1 3-1 7-4 8-15 6-31 8-47 7 3 15 2 31-2 47-1 3-4 5-8 5-18-3-34-10-48-21-6 17-16 32-30 44-2 2-6 2-9 0-23-21-36-51-36-83 0-20 5-39 15-56l-53 0-26 35c-2 3-7 4-10 1-3-2-4-6-1-10l19-26-104 0-24 67c-1 3-3 5-7 5-12-1-22 3-25 9-3 6-2 14 4 23 6 10 17 20 30 27 14 7 27 11 39 10 11 0 19-3 22-9 3-7 1-16-7-27-2-2-2-5 0-8l36-48c2-3 7-4 10-1 3 2 4 6 1 9l-32 44c8 14 10 27 4 38-11 20-46 22-79 4-16-8-28-19-36-31-8-14-10-27-4-37 5-11 17-17 33-17l21-58-42 0c-27 0-50-22-50-50 0-24 17-43 39-49 2-63 35-122 88-158-7-4-12-12-12-22 0-14 12-26 27-26l188 0c15 0 27 12 27 26 0 10-4 18-12 22 7 5 14 10 21 16 3 3 3 7 0 10-2 3-7 3-10 1-9-9-19-16-30-22l-180 0c-55 31-90 89-93 152l366 0c-2-41-17-80-44-111-2-3-2-8 1-10 1-1 3-2 5-2 2 0 4 1 5 3 29 34 46 77 47 121 22 5 39 25 39 49z m-142-241l-188 0c-7 0-13 5-13 12 0 7 6 13 13 13l188 0c7 0 13-6 13-13 0-7-6-12-13-12z m105 337c-6-18-18-34-33-46l-37 0c7 6 13 14 18 22 6 8 10 18 13 27 13 2 26 1 39-3z m-50 55c5-25 0-51-14-72-7-12-17-21-29-29l-9 0c10 17 15 36 15 56 0 9-1 17-3 25 12 9 25 16 40 20z m-105-45c0 25 9 50 27 68 17-18 27-43 27-68 0-20-6-39-18-56l-19 0c-11 17-17 36-17 56z m142-142l-372 0c-20 0-36 16-36 36 0 20 16 36 36 36l372 0c20 0 36-16 36-36 0-20-16-36-36-36z"/>
<glyph glyph-name="injectables" unicode="&#80;" d="M484 407l-77 77c-4 3-10 3-14 0-4-4-4-10 0-14l18-18-112-111-46 47c-4 3-10 3-13 0-4-4-4-10 0-14l26-27-159-159c-3-3-9-12-1-30 1-2 2-5 3-7l-23-23c-4-4-4-10 0-14l7-7-65-65c-3-4-3-10 0-14 2-1 5-2 7-2 3 0 5 1 7 2l65 65 6-7c2-2 5-3 7-3 0 0 0 0 0 0 3 0 5 1 7 3l24 23c8-4 16-7 23-7 5 0 10 2 14 5l159 159 27-26c2-2 4-3 7-3 2 0 5 1 7 3 3 3 3 9 0 13l-47 47 112 111 17-18c2-2 4-3 7-3 2 0 5 1 7 3 3 4 3 10 0 14z m-363-301l-7 7c0 0 0 0 0 0 0 1 0 1 0 1l-8 7 15 14c2-3 4-5 6-7 3-3 5-5 8-7z m54 15c-3-1-17 3-34 20-17 17-21 31-20 34l34 34 27-27c2-2 4-3 7-3 2 0 5 1 7 3 3 4 3 10 0 14l-27 26 25 25 26-27c2-2 5-2 7-2 3 0 5 0 7 2 4 4 4 10 0 14l-27 27 25 25 27-27c2-2 4-3 7-3 2 0 5 1 6 3 4 4 4 10 0 13l-26 27 34 35 54-54z m152 192l-14 15 112 111 14-15z"/>
<glyph glyph-name="gynec-products" unicode="&#81;" d="M485 386c-9 21-29 36-59 45-6 1-11 2-17 2-17-1-35-5-50-13-5-3-11-4-17-4-11 0-24 4-37 8-14 4-29 9-45 9l-8 0c-16 0-31-5-45-9-13-4-26-8-37-8-6 0-12 1-17 4-15 8-33 12-50 13-6 0-12-1-17-2-30-9-50-24-59-45-11-23-6-46-2-57-9-18-4-40 13-51 4-3 10-3 14-1 2-7 6-17 17-17 1 0 3 0 4 1 0 0 9-12 20-12 5 0 10 1 13 5 0 0 1-1 2-1 6 0 26 2 21 29 0 0 9 28-13 34-3 7-8 13-15 16 0 2 0 3-1 5-3 10-12 17-22 19 1 6 6 12 12 15 6 2 13 3 20 3 34 0 40-32 41-38 2-14 5-28 10-41 2-20 20-40 29-49-1-37 8-58 14-67l0-78c0-12 10-22 22-22l5 0c12 0 22 10 22 22l0 7 6 0 0-7c0-12 10-22 22-22l5 0c12 0 22 10 22 22l0 78c6 9 16 30 14 67 9 9 27 29 29 49 5 13 9 27 10 41 1 7 7 38 41 38 7 0 14-1 20-3 6-3 11-9 13-15-11-2-20-9-23-19-1-2-1-5-1-7-5-3-9-8-11-14-22-6-13-34-13-34-5-27 15-28 21-28 1 0 1 0 1 0 4-3 9-5 13-5 12 0 21 12 21 12 1-1 2-1 4-1 10 0 14 9 16 16 4-1 8 0 11 2 17 11 22 33 13 51 4 11 9 34-2 57z m-394-68c1 0 2 1 3 1 4-1 6-4 8-7 1-5 5-9 10-10 2 0 3-1 3-2 2-4 2-9 0-14-1-2-1-5 0-7 1-3 1-6-1-9-2-1-4-2-6-2 0 0 0 0 0 0-1 0-2 0-2 0-3 0-6-1-9-3-1-1-2-1-4-2-3 1-6 3-8 6-4 5-9 7-15 6 0 0 0 0-1 0 0 0 0 0 0 0-2 3-3 6-3 10 0 1 0 3-1 4 4 2 8 5 9 9 8-1 16 4 17 12 0 1 1 2 0 3 0 2 0 3 0 5z m359-33c0-4-1-7-3-10 0 0 0 0 0 0-1 0-1 0-2 0-5 1-11-1-14-6-1-1-6-6-9-6-1 0-2 1-3 2-3 2-6 3-9 3-1 0-1 0-2 0 0 0 0 0 0 0-2 0-5 1-7 2-1 3-1 6 0 9 0 2 0 4 0 7-2 4-2 9 0 14 0 1 1 2 3 2 5 1 9 5 10 10 1 2 3 5 6 6 0 0 1 0 1 0 0-2 0-3 0-5-1-8 6-15 14-15 1 0 2 0 3 0 2-5 7-9 12-10 0-1 0-2 0-3z m16 5c5 7 0 24 0 24l-14-11 3 16-20-6c1 7 4 14 10 19l-19 0c3 8 11 10 17 10 1 0 3 0 5-1 10 29-20 44-20 44-8 3-17 4-26 4-35 0-52-26-55-51-5-29-10-39-10-39-1-22-30-47-30-47 4-50-14-68-14-68l0-83c0-4-3-7-7-7l-5 0c-4 0-7 3-7 7l0 11c0 6-5 11-11 11l-14 0c-6 0-11-5-11-11l0-11c0-4-3-7-7-7l-5 0c-4 0-7 3-7 7l0 83c0 0-18 18-14 68 0 0-29 25-30 47 0 0-5 10-10 39-3 25-20 51-55 51-9 0-18-1-26-4 0 0-30-15-20-44 2 1 4 1 5 1 6 0 14-2 17-10l-19 0c6-5 9-12 10-19l-20 6 3-16-14 11c0 0-5-17 0-24-11 8-14 24-6 36 0 0 1 1 1 1 0 0-31 67 49 90 4 1 9 1 13 1 15 0 30-4 44-12 7-3 15-5 23-5 27 0 55 17 82 17l8 0c27 0 55-17 82-17 8 0 16 2 23 5 14 8 29 12 44 12 4 0 9 0 13-1 80-23 49-90 49-90 9-11 7-27-4-36 0 0-1-1-1-1z m-203-137l-14 0c-4 0-8-3-8-7 0-4 4-8 8-8l14 0c4 0 8 3 8 8 0 4-4 7-8 7z m0 29l-14 0c-4 0-8-3-8-7 0-4 4-7 8-7l14 0c4 0 8 3 8 7 0 4-4 7-8 7z m0 30l-14 0c-4 0-8-3-8-8 0-4 4-7 8-7l14 0c4 0 8 3 8 7 0 5-4 8-8 8z m48 177l-110 0c-7 0-14-5-17-11-3-6-2-14 2-20 39-48 61-88 62-108 1-4-2-8-6-9-2 0-4 1-5 2-2 1-3 4-3 6 0 4-3 7-7 7-4 0-7-3-7-7 0-7 2-13 7-17 5-4 11-6 17-5 5 0 9 2 12 5 3-3 7-5 12-5 6-1 12 1 17 5 5 4 7 10 7 17 0 4-3 7-7 7-4 0-7-3-7-7 0-2-1-5-3-6-2-1-3-2-5-2-4 1-7 5-6 9 0 20 23 60 61 108 5 6 6 14 3 20-3 6-10 11-17 11z m3-22c-21-27-46-61-58-90-12 29-37 63-58 90-1 2-1 3 0 5 0 1 1 2 3 2l110 0c2 0 3-1 3-2 1-2 1-3 0-5z"/>
<glyph glyph-name="general-antibiotics" unicode="&#82;" d="M323 419c-7 24-22 43-43 55-13 8-29 12-44 12-33 0-63-17-79-45l-57-98c0 0 0 0 0 0 0 0 0 0 0 0l-57-99c-25-43-10-99 33-124 14-7 29-12 45-12 30 0 57 15 74 39 0 0 0 0 1 0l117 204c13 21 16 45 10 68z m-143-262c-13-19-35-31-59-31-12 0-25 4-36 10-34 20-46 64-26 99l52 91 20-11 105-62z m118 203l-53-91-98 57 26 43c2 5 1 10-4 13-4 2-10 1-12-4l-25-43-12 6 53 91c12 23 37 36 63 36 12 0 25-3 36-9 16-10 28-25 33-44 5-19 3-38-7-55z m144-182c-22 6-51 10-82 10-31 0-60-4-82-10-26-8-39-18-39-31 0 0 0 0 0 0l0-80c0-14 13-24 39-32 22-6 51-9 82-9 31 0 60 3 82 9 26 8 39 18 39 32l0 80c0 0 0 0 0 0 0 13-13 23-39 31z m-159-17c21 5 48 9 77 9 29 0 56-4 77-9 21-7 26-13 26-14 0-1-5-8-26-14-21-6-48-9-77-9-29 0-56 3-77 9-21 6-26 13-26 14 0 1 5 7 26 14z m180-94c0-2-5-8-26-14-21-6-48-9-77-9-29 0-56 3-77 9-21 6-26 12-26 14l0 57c6-3 13-6 21-9 22-6 51-9 82-9 31 0 60 3 82 9 8 3 15 6 21 9l0-23c-13-6-29-11-47-15-5-1-8-6-7-10 1-5 5-8 9-8 0 0 1 0 2 0 16 4 30 8 43 13z m-280 338c-4 2-10 1-12-3l-1-1c-2-4-1-9 4-12 1-1 3-1 4-1 3 0 6 2 8 4l0 1c3 4 1 9-3 12z m217-331c-1 5-5 9-10 8l0 0c-5 0-9-5-8-10 0-4 4-8 9-8 0 0 0 0 0 0l1 0c5 1 8 5 8 10z"/>
<glyph glyph-name="dry-syrups-liquid" unicode="&#83;" d="M332 379l0 25 2 0c12 0 22 9 22 21l0 40c0 12-10 21-22 21l-156 0c-12 0-22-9-22-21l0-40c0-12 10-21 22-21l2 0 0-25c-20-7-77-34-77-84l0-209c0-33 26-60 58-60l190 0c32 0 58 27 58 60l0 209c0 50-57 77-77 84z m-154 43c-2 0-4 1-4 3l0 40c0 2 2 3 4 3l156 0c2 0 4-1 4-3l0-40c0-2-2-3-4-3l-156 0z m-49-100l55 0c5 0 9 4 9 9 0 5-4 9-9 9l-38 0c20 16 45 24 45 24 4 1 7 5 7 9l0 31 116 0 0-31c0-4 3-8 7-9 0 0 61-20 69-60l-268 0c1 6 4 12 7 18z m222-278l-190 0c-19 0-35 14-39 33l268 0c-4-19-20-33-39-33z m40 87l-50 0c-5 0-9-4-9-9 0-5 4-9 9-9l50 0 0-18-270 0 0 191 270 0z m-82 97l-24 0 0 24c0 5-4 9-9 9l-40 0c-5 0-9-4-9-9l0-24-24 0c-5 0-9-4-9-9l0-39c0-5 4-9 9-9l24 0 0-24c0-5 4-9 9-9l40 0c5 0 9 4 9 9l0 24 24 0c5 0 9 4 9 9l0 39c0 5-4 9-9 9z m-9-39l-24 0c-5 0-9-4-9-9l0-24-22 0 0 24c0 5-4 9-9 9l-24 0 0 21 24 0c5 0 9 4 9 9l0 24 22 0 0-24c0-5 4-9 9-9l24 0z m-89 151l0 0c-5 0-9-4-9-9 0-5 4-9 9-9l0 0c5 0 9 4 9 9 0 5-4 9-9 9z m103-209l0 0c-5 0-9-4-9-9 0-5 4-9 9-9l0 0c5 0 9 4 9 9 0 5-4 9-9 9z"/>
<glyph glyph-name="anti-allergic" unicode="&#85;" d="M118 102c38 0 69 31 69 70 0 22-11 43-29 56 2 4 3 9 4 14 10 1 19 3 28 7 3 1 6 1 8-1 2-2 4-4 4-7l0-208c0-4 4-7 8-7l31 0c4 0 7 3 7 7l0 446c0 4-3 7-7 7l-31 0c-4 0-8-3-8-7l0-108c0-3-2-5-4-7-2-2-5-2-8-1-1 0-2 1-4 1-4 35-33 61-68 61-60 0-92-60-92-169 0-25 16-154 92-154z m68 246c7-2 14-1 20 3 7 4 11 12 12 20l0 100 15 0 0-430-15 0 0 200c-1 8-5 15-12 20-6 4-15 5-22 2-7-3-13-5-20-6 0 5-1 10-2 15 12 2 24 6 35 12 7 3 13 8 18 13 3 2 3 7 1 10-9 11-20 20-33 26 1 5 3 10 3 15z m13-45c-3-2-6-4-9-6-10-5-22-9-34-10-1 3-3 6-5 9 10 5 19 13 25 23 8-4 16-10 23-16z m-81 107c29 0 53-24 54-54 0-22-14-43-35-50-15-6-31-5-45 3l-8-14c16-8 35-11 53-6 12-15 15-36 7-54-20 8-42 7-61-4l8-13c17 9 37 9 53 0 26-15 35-47 20-73-9-17-27-27-46-27-63 0-77 120-77 138 0 57 10 154 77 154z m-21-38l-2 7-3 7c-3-1-28-11-36-75l16-2c6 54 25 63 25 63z m11-237c3 0 6-1 8-1 8 0 16 3 22 8l-10 12c-8-6-14-5-15-4-15 5-29 36-34 54l-15-4c2-5 16-56 44-65z m-52 159l16 0 0-15-16 0z m338 131c-35 0-64-26-68-61-2 0-3-1-4-1-3-1-6-1-8 1-2 2-4 4-4 7l0 108c0 4-4 7-8 7l-31 0c-4 0-7-3-7-7l0-446c0-4 3-7 7-7l31 0c4 0 8 3 8 7l0 208c0 3 2 5 4 7 2 2 5 2 8 1 9-4 18-6 28-7 1-5 2-10 4-14-31-22-38-65-16-97 13-18 34-29 56-29 76 0 92 129 92 154 0 109-32 169-92 169z m-46-168c-7 1-13 3-20 6-7 3-16 2-22-2-7-5-11-12-12-20l0-200-15 0 0 430 15 0 0-100c1-8 5-16 12-20 6-4 13-5 20-3 0-5 1-10 3-15-13-6-24-15-33-26-2-3-2-8 1-10 5-5 11-10 18-13 11-6 23-10 35-12-1-5-2-10-2-15z m-26 40c-3 2-6 4-9 6 7 6 15 12 23 16 6-10 15-18 25-23-2-3-4-6-5-9-12 1-24 5-34 10z m72-179c-29 0-53 24-53 54 0 19 10 37 27 46 17 9 37 9 53 0l8 13c-19 11-41 12-61 4-8 18-5 39 7 54 18-5 37-3 53 6l-8 14c-26-15-59-5-73 21-4 8-7 17-7 26 1 30 25 54 54 54 67 0 77-97 77-154 0-18-14-138-77-138z m26 268l-5-14c0 0 19-9 25-63l16 2c-8 64-33 74-36 75z m-21-236c-1-1-7-2-15 4l-10-12c6-5 14-8 22-8 2 0 5 1 8 1 28 9 42 60 44 65l-15 4c-5-18-19-49-34-54z m41 83l16 0 0-15-16 0z"/>
<glyph glyph-name="antacids-ppi" unicode="&#86;" d="M302 380c0 0 0 0 0 0-35 25-42 83-42 84-1 5-6 9-11 8-5 0-9-5-8-10 0-3 8-65 47-96-1-4-5-12-7-15-1-3-3-5-3-6 0 0 0-1 0-1-2-5-4-10-6-16-6-19-12-36-23-52-14-20-31-38-44-47-9-6-18-11-29-15-9-4-19-9-28-15-5-3-10-6-15-10-9-8-17-15-28-16-2 0-3 0-5 0-11-1-22-2-34-9-42-25-42-82-41-110 0-5 4-9 9-9l1 0c5 0 9 4 9 9l0 0c-1 39 2 77 31 94 8 4 16 5 26 6 2 0 4 0 6 0 16 2 28 12 38 20 4 3 8 6 13 9 8 5 17 9 26 13 11 5 22 10 32 17 22 16 41 41 48 52 13 18 20 38 26 57 2 5 4 10 5 16 1 0 2 2 3 4 6 12 16 29 4 38z m163-31c-19 36-51 58-91 63 0 0 0 0 0 0-3 1-5 1-7 1-5 0-9 0-11 1 0 0 0 0 0 0-8 5-38 39-40 64 0 5-4 9-10 8-5 0-9-5-9-10 3-31 36-71 49-78 7-4 14-4 21-5 2 0 3 0 5 0 34-4 60-23 76-54 14-26 21-60 20-97-4-91-49-157-127-186-22-8-99-25-162 7 0 0 0 0 0 0-11 6-22 16-33 30l0 1c-9 12-21 28-45 19-27-10-27-49-27-65 0-5 4-9 10-9 5 0 9 4 9 9 0 11 0 42 14 47l1 0c9 4 13 1 22-13l1 0c13-17 26-28 40-36 27-14 58-21 93-21 5 0 10 1 15 1 32 2 59 9 69 13 43 16 77 42 101 78 23 34 36 77 38 125 1 40-6 77-22 107z m-28-91c-2 3-7 14-18 15 0 0 0 0 0 0-5 0-15-1-24-16-20-30-50-47-73-56-35-14-71-16-110-18-9-1-21-2-32-7-17-6-29-19-33-36-4-16 1-33 14-47 8-9 20-16 36-22 20-7 41-11 62-11 15 0 30 2 45 6 34 8 66 26 94 52 21 20 34 40 41 63 10 26 9 53-2 77z m-16-71c0 0 0 0 0 0-6-20-18-38-37-55-25-24-54-40-84-48-33-8-66-6-96 5-13 5-23 11-30 17-8 9-11 20-9 30 3 10 11 18 22 23 0 0 0 0 0 0 9 3 18 4 27 5 37 2 77 5 115 20 45 17 70 44 82 63 0 0 1 0 1 1 1 2 2 4 4 6 1-1 2-3 3-4 0 0 0-1 0-1 9-18 10-41 2-62z"/>
<glyph glyph-name="cardio-diabetic-range" unicode="&#84;" d="M13 249l16 0 0-16-16 0z m346 22c-4 7-13 11-21 11-9-1-17-6-21-14l-9-18c-1-2-3-4-6-4-3 0-5 1-7 3l-20 23c-5 5-12 9-19 8-7 0-14-3-19-9l-7-9c-1-1-4-3-6-3-3 0-5 2-7 4l-20 27c-5 7-13 10-21 9-9 0-16-5-20-13l-18-37-93 0 0-16 103 0 22 46c2 2 4 4 7 4 3 0 5-1 7-3l20-27c5-6 12-10 20-10l0 0c7 0 14 3 19 9l7 9c2 2 4 3 6 3 3 0 5-1 7-3l20-23c4-5 11-8 18-8 1 0 2 0 3 0 8 1 15 6 19 13l9 18c1 3 4 4 7 4 2 1 5-1 7-3l19-29 102 0 0 16-93 0z m124-22l16 0 0-16-16 0z m-356 20c-13 27-5 60 20 77 25 18 59 15 80-6l29-29 29 29c21 21 55 24 80 6 25-17 33-50 20-77l15-7c16 34 5 76-26 98-31 22-74 18-100-9l-18-17-17 17c-27 27-70 31-101 9-31-22-42-64-26-98z m129-146l-91 100-12-11 103-113 103 113-12 11z"/>
</font>
</defs>
</svg>
